  0
SECTION
  2
HEADER
  9
$ACADVER
  1
AC1015
  9
$ACADMAINTVER
 70
     6
  9
$DWGCODEPAGE
  3
ANSI_1250
  9
$INSBASE
 10
0.0
 20
0.0
 30
0.0
  9
$EXTMIN
 10
0.0
 20
0.0
 30
0.0
  9
$EXTMAX
 10
210.0
 20
297.0
 30
0.0
  9
$LIMMIN
 10
0.0
 20
0.0
  9
$LIMMAX
 10
210.0
 20
297.0
  9
$ORTHOMODE
 70
     0
  9
$REGENMODE
 70
     1
  9
$FILLMODE
 70
     1
  9
$QTEXTMODE
 70
     0
  9
$MIRRTEXT
 70
     1
  9
$LTSCALE
 40
1.0
  9
$ATTMODE
 70
     1
  9
$TEXTSIZE
 40
2.5
  9
$TRACEWID
 40
1.0
  9
$TEXTSTYLE
  7
STANDARD
  9
$CLAYER
  8
0
  9
$CELTYPE
  6
ByLayer
  9
$CECOLOR
 62
   256
  9
$CELTSCALE
 40
1.0
  9
$DISPSILH
 70
     0
  9
$DIMSCALE
 40
1.0
  9
$DIMASZ
 40
2.5
  9
$DIMEXO
 40
0.0
  9
$DIMDLI
 40
3.75
  9
$DIMRND
 40
0.0
  9
$DIMDLE
 40
0.0
  9
$DIMEXE
 40
1.0
  9
$DIMTP
 40
0.0
  9
$DIMTM
 40
0.0
  9
$DIMTXT
 40
2.5
  9
$DIMCEN
 40
2.5
  9
$DIMTSZ
 40
0.0
  9
$DIMTOL
 70
     0
  9
$DIMLIM
 70
     0
  9
$DIMTIH
 70
     1
  9
$DIMTOH
 70
     1
  9
$DIMSE1
 70
     0
  9
$DIMSE2
 70
     0
  9
$DIMTAD
 70
     1
  9
$DIMZIN
 70
     1
  9
$DIMBLK
  1

  9
$DIMASO
 70
     1
  9
$DIMSHO
 70
     1
  9
$DIMPOST
  1

  9
$DIMAPOST
  1

  9
$DIMALT
 70
     0
  9
$DIMALTD
 70
     3
  9
$DIMALTF
 40
0.0393700787
  9
$DIMLFAC
 40
1.0
  9
$DIMTOFL
 70
     1
  9
$DIMTVP
 40
0.0
  9
$DIMTIX
 70
     0
  9
$DIMSOXD
 70
     0
  9
$DIMSAH
 70
     0
  9
$DIMBLK1
  1

  9
$DIMBLK2
  1

  9
$DIMSTYLE
  2
ISO-25
  9
$DIMCLRD
 70
     0
  9
$DIMCLRE
 70
     0
  9
$DIMCLRT
 70
     0
  9
$DIMTFAC
 40
1.0
  9
$DIMGAP
 40
1.524
  9
$DIMJUST
 70
     0
  9
$DIMSD1
 70
     0
  9
$DIMSD2
 70
     0
  9
$DIMTOLJ
 70
     0
  9
$DIMTZIN
 70
     1
  9
$DIMALTZ
 70
     0
  9
$DIMALTTZ
 70
     0
  9
$DIMUPT
 70
     0
  9
$DIMDEC
 70
     2
  9
$DIMTDEC
 70
     2
  9
$DIMALTU
 70
     2
  9
$DIMALTTD
 70
     3
  9
$DIMTXSTY
  7
STANDARD
  9
$DIMAUNIT
 70
     0
  9
$DIMADEC
 70
     2
  9
$DIMALTRND
 40
0.0
  9
$DIMAZIN
 70
     0
  9
$DIMDSEP
 70
    44
  9
$DIMATFIT
 70
     3
  9
$DIMFRAC
 70
     0
  9
$DIMLDRBLK
  1

  9
$DIMLUNIT
 70
     2
  9
$DIMLWD
 70
    -2
  9
$DIMLWE
 70
    -2
  9
$DIMTMOVE
 70
     0
  9
$LUNITS
 70
     2
  9
$LUPREC
 70
     0
  9
$SKETCHINC
 40
1.0
  9
$FILLETRAD
 40
10.0
  9
$AUNITS
 70
     0
  9
$AUPREC
 70
     2
  9
$MENU
  1
.
  9
$ELEVATION
 40
0.0
  9
$PELEVATION
 40
0.0
  9
$THICKNESS
 40
0.0
  9
$LIMCHECK
 70
     0
  9
$CHAMFERA
 40
10.0
  9
$CHAMFERB
 40
10.0
  9
$CHAMFERC
 40
20.0
  9
$CHAMFERD
 40
0.0
  9
$SKPOLY
 70
     0
  9
$TDCREATE
 40
2455574.439914641
  9
$TDUCREATE
 40
2455574.398247974
  9
$TDUPDATE
 40
2455574.439914653
  9
$TDUUPDATE
 40
2455574.398247986
  9
$TDINDWG
 40
0.0000000116
  9
$TDUSRTIMER
 40
0.0000000116
  9
$USRTIMER
 70
     1
  9
$ANGBASE
 50
0.0
  9
$ANGDIR
 70
     0
  9
$PDMODE
 70
     0
  9
$PDSIZE
 40
-1.0
  9
$PLINEWID
 40
0.0
  9
$SPLFRAME
 70
     0
  9
$SPLINETYPE
 70
     6
  9
$SPLINESEGS
 70
     8
  9
$HANDSEED
  5
F6
  9
$SURFTAB1
 70
     6
  9
$SURFTAB2
 70
     6
  9
$SURFTYPE
 70
     6
  9
$SURFU
 70
     6
  9
$SURFV
 70
     6
  9
$UCSBASE
  2

  9
$UCSNAME
  2

  9
$UCSORG
 10
0.0
 20
0.0
 30
0.0
  9
$UCSXDIR
 10
1.0
 20
0.0
 30
0.0
  9
$UCSYDIR
 10
0.0
 20
1.0
 30
0.0
  9
$UCSORTHOREF
  2

  9
$UCSORTHOVIEW
 70
     0
  9
$UCSORGTOP
 10
0.0
 20
0.0
 30
0.0
  9
$UCSORGBOTTOM
 10
0.0
 20
0.0
 30
0.0
  9
$UCSORGLEFT
 10
0.0
 20
0.0
 30
0.0
  9
$UCSORGRIGHT
 10
0.0
 20
0.0
 30
0.0
  9
$UCSORGFRONT
 10
0.0
 20
0.0
 30
0.0
  9
$UCSORGBACK
 10
0.0
 20
0.0
 30
0.0
  9
$PUCSBASE
  2

  9
$PUCSNAME
  2

  9
$PUCSORG
 10
0.0
 20
0.0
 30
0.0
  9
$PUCSXDIR
 10
1.0
 20
0.0
 30
0.0
  9
$PUCSYDIR
 10
0.0
 20
1.0
 30
0.0
  9
$PUCSORTHOREF
  2

  9
$PUCSORTHOVIEW
 70
     0
  9
$PUCSORGTOP
 10
0.0
 20
0.0
 30
0.0
  9
$PUCSORGBOTTOM
 10
0.0
 20
0.0
 30
0.0
  9
$PUCSORGLEFT
 10
0.0
 20
0.0
 30
0.0
  9
$PUCSORGRIGHT
 10
0.0
 20
0.0
 30
0.0
  9
$PUCSORGFRONT
 10
0.0
 20
0.0
 30
0.0
  9
$PUCSORGBACK
 10
0.0
 20
0.0
 30
0.0
  9
$USERI1
 70
     0
  9
$USERI2
 70
     0
  9
$USERI3
 70
     0
  9
$USERI4
 70
     0
  9
$USERI5
 70
     0
  9
$USERR1
 40
0.0
  9
$USERR2
 40
0.0
  9
$USERR3
 40
0.0
  9
$USERR4
 40
0.0
  9
$USERR5
 40
0.0
  9
$WORLDVIEW
 70
     1
  9
$SHADEDGE
 70
     3
  9
$SHADEDIF
 70
    70
  9
$TILEMODE
 70
     1
  9
$MAXACTVP
 70
    64
  9
$PINSBASE
 10
0.0
 20
0.0
 30
0.0
  9
$PLIMCHECK
 70
     0
  9
$PEXTMIN
 10
1.0000000000E+20
 20
1.0000000000E+20
 30
1.0000000000E+20
  9
$PEXTMAX
 10
-1.0000000000E+20
 20
-1.0000000000E+20
 30
-1.0000000000E+20
  9
$PLIMMIN
 10
0.0
 20
0.0
  9
$PLIMMAX
 10
420.0
 20
297.0
  9
$UNITMODE
 70
     0
  9
$VISRETAIN
 70
     1
  9
$PLINEGEN
 70
     0
  9
$PSLTSCALE
 70
     1
  9
$TREEDEPTH
 70
  3020
  9
$CMLSTYLE
  2
Standard
  9
$CMLJUST
 70
     0
  9
$CMLSCALE
 40
20.0
  9
$PROXYGRAPHICS
 70
     1
  9
$MEASUREMENT
 70
     1
  9
$CELWEIGHT
370
    -1
  9
$ENDCAPS
280
     0
  9
$JOINSTYLE
280
     0
  9
$LWDISPLAY
290
     1
  9
$INSUNITS
 70
     4
  9
$HYPERLINKBASE
  1

  9
$STYLESHEET
  1

  9
$XEDIT
290
     1
  9
$CEPSNTYPE
380
     0
  9
$PSTYLEMODE
290
     1
  9
$FINGERPRINTGUID
  2
{5C070875-0914-47AD-AA9C-6FDF7D512F36}
  9
$VERSIONGUID
  2
{FAEB1C32-E019-11D5-929B-00C0DF256EC4}
  9
$EXTNAMES
290
     1
  9
$PSVPSCALE
 40
0.0
  9
$OLESTARTUP
290
     0
  0
ENDSEC
  0
SECTION
  2
CLASSES
  0
CLASS
  1
ACDBDICTIONARYWDFLT
  2
AcDbDictionaryWithDefault
  3
ObjectDBX Classes
 90
        0
280
     0
281
     0
  0
CLASS
  1
VISUALSTYLE
  2
AcDbVisualStyle
  3
ObjectDBX Classes
 90
     4095
280
     0
281
     0
  0
CLASS
  1
MATERIAL
  2
AcDbMaterial
  3
ObjectDBX Classes
 90
     1153
280
     0
281
     0
  0
CLASS
  1
ACDBPLACEHOLDER
  2
AcDbPlaceHolder
  3
ObjectDBX Classes
 90
        0
280
     0
281
     0
  0
CLASS
  1
LAYOUT
  2
AcDbLayout
  3
ObjectDBX Classes
 90
        0
280
     0
281
     0
  0
ENDSEC
  0
SECTION
  2
TABLES
  0
TABLE
  2
VPORT
  5
8
330
0
100
AcDbSymbolTable
 70
     1
  0
VPORT
  5
29
330
8
100
AcDbSymbolTableRecord
100
AcDbViewportTableRecord
  2
*Active
 70
     0
 10
0.0
 20
0.0
 11
1.0
 21
1.0
 12
105.0
 22
148.5
 13
0.0
 23
0.0
 14
10.0
 24
10.0
 15
10.0
 25
10.0
 16
0.0
 26
0.0
 36
1.0
 17
0.0
 27
0.0
 37
0.0
 40
297.0
 41
0.7070707071
 42
50.0
 43
0.0
 44
0.0
 50
0.0
 51
0.0
 71
     0
 72
  2000
 73
     1
 74
     3
 75
     0
 76
     0
 77
     0
 78
     0
281
     0
 65
     1
110
0.0
120
0.0
130
0.0
111
1.0
121
0.0
131
0.0
112
0.0
122
1.0
132
0.0
 79
     0
146
0.0
  0
ENDTAB
  0
TABLE
  2
LTYPE
  5
5
330
0
100
AcDbSymbolTable
 70
     6
  0
LTYPE
  5
14
330
5
100
AcDbSymbolTableRecord
100
AcDbLinetypeTableRecord
  2
ByBlock
 70
     0
  3

 72
    65
 73
     0
 40
0.0
  0
LTYPE
  5
15
330
5
100
AcDbSymbolTableRecord
100
AcDbLinetypeTableRecord
  2
ByLayer
 70
     0
  3

 72
    65
 73
     0
 40
0.0
  0
LTYPE
  5
16
330
5
100
AcDbSymbolTableRecord
100
AcDbLinetypeTableRecord
  2
Continuous
 70
     0
  3
Solid line
 72
    65
 73
     0
 40
0.0
  0
LTYPE
  5
3F
330
5
100
AcDbSymbolTableRecord
100
AcDbLinetypeTableRecord
  2
HIDDEN
 70
     0
  3
Hidden __ __ __ __ __ __ __ __ __ __ __ __ __ __
 72
    65
 73
     2
 40
1.905
 49
1.27
 74
     0
 49
-0.635
 74
     0
  0
LTYPE
  5
40
330
5
100
AcDbSymbolTableRecord
100
AcDbLinetypeTableRecord
  2
PHANTOM
 70
     0
  3
Phantom ______  __  __  ______  __  __  ______
 72
    65
 73
     6
 40
12.7
 49
6.35
 74
     0
 49
-1.27
 74
     0
 49
1.27
 74
     0
 49
-1.27
 74
     0
 49
1.27
 74
     0
 49
-1.27
 74
     0
  0
LTYPE
  5
41
330
5
100
AcDbSymbolTableRecord
100
AcDbLinetypeTableRecord
  2
CENTER
 70
     0
  3
Center ____ _ ____ _ ____ _ ____ _ ____ _ ____
 72
    65
 73
     4
 40
10.16
 49
6.35
 74
     0
 49
-1.27
 74
     0
 49
1.27
 74
     0
 49
-1.27
 74
     0
  0
LTYPE
  5
42
330
5
100
AcDbSymbolTableRecord
100
AcDbLinetypeTableRecord
  2
CENTERX2
 70
     0
  3
Center (2x) ________  __  ________  __  _____
 72
    65
 73
     4
 40
20.32
 49
12.7
 74
     0
 49
-2.54
 74
     0
 49
2.54
 74
     0
 49
-2.54
 74
     0
  0
LTYPE
  5
43
330
5
100
AcDbSymbolTableRecord
100
AcDbLinetypeTableRecord
  2
DOT2
 70
     0
  3
Dot (.5x) ........................................
 72
    65
 73
     2
 40
0.635
 49
0.0
 74
     0
 49
-0.635
 74
     0
  0
ENDTAB
  0
TABLE
  2
LAYER
  5
2
330
0
100
AcDbSymbolTable
 70
    26
  0
LAYER
  5
10
330
2
100
AcDbSymbolTableRecord
100
AcDbLayerTableRecord
  2
0
 70
     0
 62
     7
  6
Continuous
370
    -3
390
F
  0
LAYER
  5
44
330
2
100
AcDbSymbolTableRecord
100
AcDbLayerTableRecord
  2
SLD-0
 70
     0
 62
     1
  6
HIDDEN
370
    -3
390
F
  0
LAYER
  5
45
330
2
100
AcDbSymbolTableRecord
100
AcDbLayerTableRecord
  2
POČÁTEK
 70
     0
 62
    34
  6
Continuous
370
    -3
390
F
  0
LAYER
  5
46
330
2
100
AcDbSymbolTableRecord
100
AcDbLayerTableRecord
  2
OBRYS
 70
     0
 62
   156
  6
Continuous
370
    15
390
F
  0
LAYER
  5
47
330
2
100
AcDbSymbolTableRecord
100
AcDbLayerTableRecord
  2
SRAFY
 70
     0
 62
     2
  6
Continuous
370
    -1
390
F
  0
LAYER
  5
48
330
2
100
AcDbSymbolTableRecord
100
AcDbLayerTableRecord
  2
KOTY
 70
     0
 62
    82
  6
Continuous
370
    -3
390
F
  0
LAYER
  5
49
330
2
100
AcDbSymbolTableRecord
100
AcDbLayerTableRecord
  2
OSY
 70
     0
 62
     1
  6
CENTERX2
370
    -3
390
F
  0
LAYER
  5
4A
330
2
100
AcDbSymbolTableRecord
100
AcDbLayerTableRecord
  2
REZY
 70
     0
 62
     1
  6
CENTERX2
370
    -3
390
F
  0
LAYER
  5
4B
330
2
100
AcDbSymbolTableRecord
100
AcDbLayerTableRecord
  2
TENKA
 70
     0
 62
   131
  6
Continuous
370
    -1
390
F
  0
LAYER
  5
4C
330
2
100
AcDbSymbolTableRecord
100
AcDbLayerTableRecord
  2
SKRYTE
 70
     0
 62
     4
  6
HIDDEN
370
    -3
390
F
  0
LAYER
  5
4D
330
2
100
AcDbSymbolTableRecord
100
AcDbLayerTableRecord
  2
TEXT
 70
     0
 62
    40
  6
Continuous
370
    -3
390
F
  0
LAYER
  5
4E
330
2
100
AcDbSymbolTableRecord
100
AcDbLayerTableRecord
  2
STŘEDOVÉ
 70
     0
 62
     1
  6
CENTERX2
370
    -3
390
F
  0
LAYER
  5
4F
330
2
100
AcDbSymbolTableRecord
100
AcDbLayerTableRecord
  2
OPRACOVÁNÍ
 70
     0
 62
   212
  6
Continuous
370
    -3
390
F
  0
LAYER
  5
50
330
2
100
AcDbSymbolTableRecord
100
AcDbLayerTableRecord
  2
TABULKA
 70
     0
 62
    41
  6
Continuous
370
    -1
390
F
  0
LAYER
  5
51
330
2
100
AcDbSymbolTableRecord
100
AcDbLayerTableRecord
  2
GEOMETRICKÉ
 70
     0
 62
   212
  6
Continuous
370
    -3
390
F
  0
LAYER
  5
52
330
2
100
AcDbSymbolTableRecord
100
AcDbLayerTableRecord
  2
ČÁRY
 70
     0
 62
     2
  6
Continuous
370
    -3
390
F
  0
LAYER
  5
53
330
2
100
AcDbSymbolTableRecord
100
AcDbLayerTableRecord
  2
POPIS
 70
     0
 62
     3
  6
Continuous
370
    -1
390
F
  0
LAYER
  5
54
330
2
100
AcDbSymbolTableRecord
100
AcDbLayerTableRecord
  2
ZÁKLADNA
 70
     0
 62
   212
  6
Continuous
370
    -1
390
F
  0
LAYER
  5
55
330
2
100
AcDbSymbolTableRecord
100
AcDbLayerTableRecord
  2
STŘEDY
 70
     0
 62
     1
  6
CENTERX2
370
    -3
390
F
  0
LAYER
  5
56
330
2
100
AcDbSymbolTableRecord
100
AcDbLayerTableRecord
  2
KOLÍK
 70
     0
 62
     9
  6
Continuous
370
    -3
390
F
  0
LAYER
  5
57
330
2
100
AcDbSymbolTableRecord
100
AcDbLayerTableRecord
  2
PŘERUŠENÍ
 70
     0
 62
     4
  6
HIDDEN
370
    -3
390
F
  0
LAYER
  5
58
330
2
100
AcDbSymbolTableRecord
100
AcDbLayerTableRecord
  2
DETAIL
 70
     0
 62
     6
  6
Continuous
370
    -3
390
F
  0
LAYER
  5
59
330
2
100
AcDbSymbolTableRecord
100
AcDbLayerTableRecord
  2
ZÁVIT
 70
     0
 62
     2
  6
Continuous
370
    -3
390
F
  0
LAYER
  5
5A
330
2
100
AcDbSymbolTableRecord
100
AcDbLayerTableRecord
  2
HRANICE
 70
     0
 62
     6
  6
Continuous
370
    -1
390
F
  0
LAYER
  5
5B
330
2
100
AcDbSymbolTableRecord
100
AcDbLayerTableRecord
  2
LOMENÉ
 70
     0
 62
     6
  6
Continuous
370
    -1
390
F
  0
LAYER
  5
5C
330
2
100
AcDbSymbolTableRecord
100
AcDbLayerTableRecord
  2
TEČNÉ
 70
     0
 62
     6
  6
Continuous
370
    -3
390
F
  0
ENDTAB
  0
TABLE
  2
STYLE
  5
3
330
0
100
AcDbSymbolTable
 70
     2
  0
STYLE
  5
11
330
3
100
AcDbSymbolTableRecord
100
AcDbTextStyleTableRecord
  2
STANDARD
 70
     0
 40
0.0
 41
1.0
 50
0.0
 71
     0
 42
2.5
  3
GOTHIC.TTF
  4

1001
ACAD
1000
CENTURY GOTHIC
1071
       34
  0
STYLE
  5
67
330
3
100
AcDbSymbolTableRecord
100
AcDbTextStyleTableRecord
  2
SLDTEXTSTYLE0
 70
     0
 40
0.0
 41
0.913
 50
0.0
 71
     0
 42
0.2
  3
GOTHIC.TTF
  4

1001
ACAD
1000
Century Gothic
1071
      290
  0
ENDTAB
  0
TABLE
  2
VIEW
  5
6
330
0
100
AcDbSymbolTable
 70
     0
  0
ENDTAB
  0
TABLE
  2
UCS
  5
7
330
0
100
AcDbSymbolTable
 70
     0
  0
ENDTAB
  0
TABLE
  2
APPID
  5
9
330
0
100
AcDbSymbolTable
 70
     1
  0
APPID
  5
12
330
9
100
AcDbSymbolTableRecord
100
AcDbRegAppTableRecord
  2
ACAD
 70
     0
  0
ENDTAB
  0
TABLE
  2
DIMSTYLE
  5
A
330
0
100
AcDbSymbolTable
 70
     5
100
AcDbDimStyleTable
  0
DIMSTYLE
105
27
330
A
100
AcDbSymbolTableRecord
100
AcDbDimStyleTableRecord
  2
ISO-25
 70
     0
 41
2.5
 42
0.625
 43
3.75
 44
1.25
 73
     0
 74
     0
 77
     1
 78
     8
140
2.5
141
2.5
143
0.0393700787
147
0.625
171
     3
172
     1
178
     0
271
     2
272
     2
274
     3
278
    44
283
     0
284
     8
340
11
  0
DIMSTYLE
105
68
102
{ACAD_REACTORS
330
66
102
}
330
A
100
AcDbSymbolTableRecord
100
AcDbDimStyleTableRecord
  2
SLDDIMSTYLE0
 70
     0
 41
2.5
 44
0.0
 45
0.000000001
 73
     0
 74
     0
 77
     1
 78
    12
 79
     3
140
2.5
147
0.625
172
     1
173
     1
178
     0
271
     0
272
     2
276
     2
284
    12
289
     0
340
67
  0
DIMSTYLE
105
75
102
{ACAD_REACTORS
330
74
102
}
330
A
100
AcDbSymbolTableRecord
100
AcDbDimStyleTableRecord
  2
SLDDIMSTYLE1
 70
     0
 41
2.5
 44
0.0
 45
0.000000001
 73
     0
 74
     0
 77
     1
 78
    12
 79
     3
140
2.5
141
0.0
147
0.625
172
     1
173
     1
178
     0
271
     0
272
     2
276
     2
284
    12
340
67
  0
DIMSTYLE
105
81
102
{ACAD_REACTORS
330
80
330
8B
330
EB
102
}
330
A
100
AcDbSymbolTableRecord
100
AcDbDimStyleTableRecord
  2
SLDDIMSTYLE2
 70
     0
 41
2.5
 44
0.0
 45
0.000000001
 73
     0
 74
     0
 77
     1
 78
    12
 79
     3
140
2.5
147
0.625
173
     1
178
     0
271
     1
272
     2
276
     2
284
    12
340
67
  0
DIMSTYLE
105
D7
102
{ACAD_REACTORS
330
D6
330
E1
102
}
330
A
100
AcDbSymbolTableRecord
100
AcDbDimStyleTableRecord
  2
SLDDIMSTYLE3
 70
     0
 41
2.5
 44
0.0
 45
0.000000001
 73
     0
 74
     0
 77
     1
 78
    12
 79
     3
140
2.5
147
0.625
173
     1
178
     0
271
     0
272
     2
276
     2
284
    12
340
67
  0
ENDTAB
  0
TABLE
  2
BLOCK_RECORD
  5
1
330
0
100
AcDbSymbolTable
 70
     8
  0
BLOCK_RECORD
  5
1F
330
1
100
AcDbSymbolTableRecord
100
AcDbBlockTableRecord
  2
*Model_Space
340
22
  0
BLOCK_RECORD
  5
1B
330
1
100
AcDbSymbolTableRecord
100
AcDbBlockTableRecord
  2
*Paper_Space
340
1E
  0
BLOCK_RECORD
  5
23
330
1
100
AcDbSymbolTableRecord
100
AcDbBlockTableRecord
  2
*Paper_Space0
340
26
  0
BLOCK_RECORD
  5
69
330
1
100
AcDbSymbolTableRecord
100
AcDbBlockTableRecord
  2
*D1
340
0
  0
BLOCK_RECORD
  5
76
330
1
100
AcDbSymbolTableRecord
100
AcDbBlockTableRecord
  2
*D2
340
0
  0
BLOCK_RECORD
  5
82
330
1
100
AcDbSymbolTableRecord
100
AcDbBlockTableRecord
  2
*D3
340
0
  0
BLOCK_RECORD
  5
8C
330
1
100
AcDbSymbolTableRecord
100
AcDbBlockTableRecord
  2
*D4
340
0
  0
BLOCK_RECORD
  5
D8
330
1
100
AcDbSymbolTableRecord
100
AcDbBlockTableRecord
  2
*D5
340
0
  0
BLOCK_RECORD
  5
E2
330
1
100
AcDbSymbolTableRecord
100
AcDbBlockTableRecord
  2
*D6
340
0
  0
BLOCK_RECORD
  5
EC
330
1
100
AcDbSymbolTableRecord
100
AcDbBlockTableRecord
  2
*D7
340
0
  0
ENDTAB
  0
ENDSEC
  0
SECTION
  2
BLOCKS
  0
BLOCK
  5
20
330
1F
100
AcDbEntity
  8
0
100
AcDbBlockBegin
  2
*Model_Space
 70
     0
 10
0.0
 20
0.0
 30
0.0
  3
*Model_Space
  1

  0
ENDBLK
  5
21
330
1F
100
AcDbEntity
  8
0
100
AcDbBlockEnd
  0
BLOCK
  5
1C
330
1B
100
AcDbEntity
 67
     1
  8
0
100
AcDbBlockBegin
  2
*Paper_Space
 70
     0
 10
0.0
 20
0.0
 30
0.0
  3
*Paper_Space
  1

  0
ENDBLK
  5
1D
330
1B
100
AcDbEntity
 67
     1
  8
0
100
AcDbBlockEnd
  0
BLOCK
  5
24
330
23
100
AcDbEntity
  8
0
100
AcDbBlockBegin
  2
*Paper_Space0
 70
     0
 10
0.0
 20
0.0
 30
0.0
  3
*Paper_Space0
  1

  0
ENDBLK
  5
25
330
23
100
AcDbEntity
  8
0
100
AcDbBlockEnd
  0
BLOCK
  5
6A
330
69
100
AcDbEntity
  8
0
100
AcDbBlockBegin
  2
*D1
 70
     1
 10
0.0
 20
0.0
 30
0.0
  3
*D1
  1

  0
SOLID
  5
6C
330
69
100
AcDbEntity
  8
KOTY
100
AcDbTrace
 10
97.5802100355
 20
193.8865633447
 30
0.0
 11
95.0802100355
 21
194.2711787293
 31
0.0
 12
95.0802100355
 22
193.50194796
 32
0.0
 13
95.0802100355
 23
193.50194796
 33
0.0
  0
SOLID
  5
6D
330
69
100
AcDbEntity
  8
KOTY
100
AcDbTrace
 10
102.5802100355
 20
193.8865633447
 30
0.0
 11
105.0802100355
 21
193.50194796
 31
0.0
 12
105.0802100355
 22
194.2711787293
 32
0.0
 13
105.0802100355
 23
194.2711787293
 33
0.0
  0
LINE
  5
6E
330
69
100
AcDbEntity
  8
KOTY
100
AcDbLine
 10
97.5802100355
 20
184.1827656241
 30
0.0
 11
97.5802100355
 21
194.8865633447
 31
0.0
  0
LINE
  5
6F
330
69
100
AcDbEntity
  8
KOTY
100
AcDbLine
 10
102.5802100355
 20
184.1827656241
 30
0.0
 11
102.5802100355
 21
194.8865633447
 31
0.0
  0
LINE
  5
70
330
69
100
AcDbEntity
  8
KOTY
100
AcDbLine
 10
97.5802100355
 20
193.8865633447
 30
0.0
 11
82.2107540149
 21
193.8865633447
 31
0.0
  0
LINE
  5
71
330
69
100
AcDbEntity
  8
KOTY
100
AcDbLine
 10
97.5802100355
 20
193.8865633447
 30
0.0
 11
102.5802100355
 21
193.8865633447
 31
0.0
  0
LINE
  5
72
330
69
100
AcDbEntity
  8
KOTY
100
AcDbLine
 10
102.5802100355
 20
193.8865633447
 30
0.0
 11
107.3879023432
 21
193.8865633447
 31
0.0
  0
MTEXT
  5
73
330
69
100
AcDbEntity
  8
KOTY
100
AcDbMText
 10
83.7982540149
 20
197.0799226614
 30
0.0
 40
2.5
 41
0.0
 71
     1
 72
     1
  1
5
  7
SLDTEXTSTYLE0
 73
     1
 44
1.0
  0
ENDBLK
  5
6B
330
69
100
AcDbEntity
  8
0
100
AcDbBlockEnd
  0
BLOCK
  5
77
330
76
100
AcDbEntity
  8
0
100
AcDbBlockBegin
  2
*D2
 70
     1
 10
0.0
 20
0.0
 30
0.0
  3
*D2
  1

  0
SOLID
  5
79
330
76
100
AcDbEntity
  8
KOTY
100
AcDbTrace
 10
105.1684986124
 20
165.8622812095
 30
0.0
 11
107.4924339545
 21
166.8609070255
 31
0.0
 12
107.0848037512
 22
167.5132517148
 32
0.0
 13
107.0848037512
 23
167.5132517148
 33
0.0
  0
SOLID
  5
7A
330
76
100
AcDbEntity
  8
KOTY
100
AcDbTrace
 10
94.9919214586
 20
159.5032500388
 30
0.0
 11
92.6679861165
 21
158.5046242228
 31
0.0
 12
93.0756163198
 22
157.8522795335
 32
0.0
 13
93.0756163198
 23
157.8522795335
 33
0.0
  0
LINE
  5
7B
330
76
100
AcDbEntity
  8
KOTY
100
AcDbLine
 10
94.9919214586
 20
159.5032500388
 30
0.0
 11
80.3025870932
 21
150.3243351939
 31
0.0
  0
LINE
  5
7C
330
76
100
AcDbEntity
  8
KOTY
100
AcDbLine
 10
105.1684986124
 20
165.8622812095
 30
0.0
 11
109.2456529209
 21
168.4099699799
 31
0.0
  0
LINE
  5
7D
330
76
100
AcDbEntity
  8
KOTY
100
AcDbLine
 10
94.9919214586
 20
159.5032500388
 30
0.0
 11
105.1684986124
 21
165.8622812095
 31
0.0
  0
MTEXT
  5
7E
330
76
100
AcDbEntity
  8
KOTY
100
AcDbMText
 10
79.9628925377
 20
153.8636994851
 30
0.0
 40
2.5
 41
0.0
 71
     1
 72
     1
  1
%%c
  7
SLDTEXTSTYLE0
 11
0.8480480961564187
 21
0.5299192642332166
 31
0.0
 73
     1
 44
1.0
  0
MTEXT
  5
7F
330
76
100
AcDbEntity
  8
KOTY
100
AcDbMText
 10
83.1585850556
 20
155.8605895231
 30
0.0
 40
2.5
 41
0.0
 71
     1
 72
     1
  1
12
  7
SLDTEXTSTYLE0
 11
0.8480480961564187
 21
0.5299192642332166
 31
0.0
 73
     1
 44
1.0
  0
ENDBLK
  5
78
330
76
100
AcDbEntity
  8
0
100
AcDbBlockEnd
  0
BLOCK
  5
83
330
82
100
AcDbEntity
  8
0
100
AcDbBlockBegin
  2
*D3
 70
     1
 10
0.0
 20
0.0
 30
0.0
  3
*D3
  1

  0
SOLID
  5
85
330
82
100
AcDbEntity
  8
KOTY
100
AcDbTrace
 10
121.5802100355
 20
184.1827656241
 30
0.0
 11
121.1955946509
 21
181.6827656241
 31
0.0
 12
121.9648254201
 22
181.6827656241
 32
0.0
 13
121.9648254201
 23
181.6827656241
 33
0.0
  0
SOLID
  5
86
330
82
100
AcDbEntity
  8
KOTY
100
AcDbTrace
 10
121.5802100355
 20
162.6827656241
 30
0.0
 11
121.9648254201
 21
165.1827656241
 31
0.0
 12
121.1955946509
 22
165.1827656241
 32
0.0
 13
121.1955946509
 23
165.1827656241
 33
0.0
  0
LINE
  5
87
330
82
100
AcDbEntity
  8
KOTY
100
AcDbLine
 10
100.0802100355
 20
184.1827656241
 30
0.0
 11
122.5802100355
 21
184.1827656241
 31
0.0
  0
LINE
  5
88
330
82
100
AcDbEntity
  8
KOTY
100
AcDbLine
 10
100.0802100355
 20
162.6827656241
 30
0.0
 11
122.5802100355
 21
162.6827656241
 31
0.0
  0
LINE
  5
89
330
82
100
AcDbEntity
  8
KOTY
100
AcDbLine
 10
121.5802100355
 20
184.1827656241
 30
0.0
 11
121.5802100355
 21
162.6827656241
 31
0.0
  0
MTEXT
  5
8A
330
82
100
AcDbEntity
  8
KOTY
100
AcDbMText
 10
118.3868507187
 20
170.1642629394
 30
0.0
 40
2.5
 41
0.0
 71
     1
 72
     1
  1
21,5
  7
SLDTEXTSTYLE0
 11
-7.044195017643634E-15
 21
1.0
 31
0.0
 73
     1
 44
1.0
  0
ENDBLK
  5
84
330
82
100
AcDbEntity
  8
0
100
AcDbBlockEnd
  0
BLOCK
  5
8D
330
8C
100
AcDbEntity
  8
0
100
AcDbBlockBegin
  2
*D4
 70
     1
 10
0.0
 20
0.0
 30
0.0
  3
*D4
  1

  0
SOLID
  5
8F
330
8C
100
AcDbEntity
  8
KOTY
100
AcDbTrace
 10
100.0802100355
 20
147.8350215169
 30
0.0
 11
102.5802100355
 21
147.4504061323
 31
0.0
 12
102.5802100355
 22
148.2196369015
 32
0.0
 13
102.5802100355
 23
148.2196369015
 33
0.0
  0
SOLID
  5
90
330
8C
100
AcDbEntity
  8
KOTY
100
AcDbTrace
 10
111.5802100355
 20
147.8350215169
 30
0.0
 11
109.0802100355
 21
148.2196369015
 31
0.0
 12
109.0802100355
 22
147.4504061323
 32
0.0
 13
109.0802100355
 23
147.4504061323
 33
0.0
  0
LINE
  5
91
330
8C
100
AcDbEntity
  8
KOTY
100
AcDbLine
 10
100.0802100355
 20
162.6827656241
 30
0.0
 11
100.0802100355
 21
146.8350215169
 31
0.0
  0
LINE
  5
92
330
8C
100
AcDbEntity
  8
KOTY
100
AcDbLine
 10
100.0802100355
 20
147.8350215169
 30
0.0
 11
111.5802100355
 21
147.8350215169
 31
0.0
  0
LINE
  5
93
330
8C
100
AcDbEntity
  8
KOTY
100
AcDbLine
 10
111.5802100355
 20
147.8350215169
 30
0.0
 11
126.4001173808
 21
147.8350215169
 31
0.0
  0
MTEXT
  5
94
330
8C
100
AcDbEntity
  8
KOTY
100
AcDbMText
 10
118.3478026902
 20
151.0283808337
 30
0.0
 40
2.5
 41
0.0
 71
     1
 72
     1
  1
11,5
  7
SLDTEXTSTYLE0
 73
     1
 44
1.0
  0
ENDBLK
  5
8E
330
8C
100
AcDbEntity
  8
0
100
AcDbBlockEnd
  0
BLOCK
  5
D9
330
D8
100
AcDbEntity
  8
0
100
AcDbBlockBegin
  2
*D5
 70
     1
 10
0.0
 20
0.0
 30
0.0
  3
*D5
  1

  0
SOLID
  5
DB
330
D8
100
AcDbEntity
  8
KOTY
100
AcDbTrace
 10
79.0414325779
 20
229.0412750264
 30
0.0
 11
79.4260479625
 21
231.5412750264
 31
0.0
 12
78.6568171932
 22
231.5412750264
 32
0.0
 13
78.6568171932
 23
231.5412750264
 33
0.0
  0
SOLID
  5
DC
330
D8
100
AcDbEntity
  8
KOTY
100
AcDbTrace
 10
79.0414325779
 20
247.0412750263
 30
0.0
 11
78.6568171932
 21
244.5412750263
 31
0.0
 12
79.4260479625
 22
244.5412750263
 32
0.0
 13
79.4260479625
 23
244.5412750263
 33
0.0
  0
LINE
  5
DD
330
D8
100
AcDbEntity
  8
KOTY
100
AcDbLine
 10
92.3802100355
 20
229.0412750264
 30
0.0
 11
78.0414325779
 21
229.0412750264
 31
0.0
  0
LINE
  5
DE
330
D8
100
AcDbEntity
  8
KOTY
100
AcDbLine
 10
91.5802100355
 20
247.0412750263
 30
0.0
 11
78.0414325779
 21
247.0412750263
 31
0.0
  0
LINE
  5
DF
330
D8
100
AcDbEntity
  8
KOTY
100
AcDbLine
 10
79.0414325779
 20
229.0412750264
 30
0.0
 11
79.0414325779
 21
247.0412750263
 31
0.0
  0
MTEXT
  5
E0
330
D8
100
AcDbEntity
  8
KOTY
100
AcDbMText
 10
75.8480732611
 20
236.6606594646
 30
0.0
 40
2.5
 41
0.0
 71
     1
 72
     1
  1
18
  7
SLDTEXTSTYLE0
 11
6.123233995736766E-17
 21
1.0
 31
0.0
 73
     1
 44
1.0
  0
ENDBLK
  5
DA
330
D8
100
AcDbEntity
  8
0
100
AcDbBlockEnd
  0
BLOCK
  5
E3
330
E2
100
AcDbEntity
  8
0
100
AcDbBlockBegin
  2
*D6
 70
     1
 10
0.0
 20
0.0
 30
0.0
  3
*D6
  1

  0
SOLID
  5
E5
330
E2
100
AcDbEntity
  8
KOTY
100
AcDbTrace
 10
91.5802100355
 20
257.0412750263
 30
0.0
 11
94.0802100355
 21
256.6566596417
 31
0.0
 12
94.0802100355
 22
257.4258904109
 32
0.0
 13
94.0802100355
 23
257.4258904109
 33
0.0
  0
SOLID
  5
E6
330
E2
100
AcDbEntity
  8
KOTY
100
AcDbTrace
 10
111.5802100355
 20
257.0412750263
 30
0.0
 11
109.0802100355
 21
257.4258904109
 31
0.0
 12
109.0802100355
 22
256.6566596417
 32
0.0
 13
109.0802100355
 23
256.6566596417
 33
0.0
  0
LINE
  5
E7
330
E2
100
AcDbEntity
  8
KOTY
100
AcDbLine
 10
91.5802100355
 20
247.0412750263
 30
0.0
 11
91.5802100355
 21
258.0412750263
 31
0.0
  0
LINE
  5
E8
330
E2
100
AcDbEntity
  8
KOTY
100
AcDbLine
 10
111.5802100355
 20
247.0412750263
 30
0.0
 11
111.5802100355
 21
258.0412750263
 31
0.0
  0
LINE
  5
E9
330
E2
100
AcDbEntity
  8
KOTY
100
AcDbLine
 10
91.5802100355
 20
257.0412750263
 30
0.0
 11
111.5802100355
 21
257.0412750263
 31
0.0
  0
MTEXT
  5
EA
330
E2
100
AcDbEntity
  8
KOTY
100
AcDbMText
 10
100.3215486943
 20
260.2346343431
 30
0.0
 40
2.5
 41
0.0
 71
     1
 72
     1
  1
20
  7
SLDTEXTSTYLE0
 73
     1
 44
1.0
  0
ENDBLK
  5
E4
330
E2
100
AcDbEntity
  8
0
100
AcDbBlockEnd
  0
BLOCK
  5
ED
330
EC
100
AcDbEntity
  8
0
100
AcDbBlockBegin
  2
*D7
 70
     1
 10
0.0
 20
0.0
 30
0.0
  3
*D7
  1

  0
SOLID
  5
EF
330
EC
100
AcDbEntity
  8
KOTY
100
AcDbTrace
 10
121.5802100355
 20
242.7412750263
 30
0.0
 11
121.1955946509
 21
240.2412750263
 31
0.0
 12
121.9648254201
 22
240.2412750263
 32
0.0
 13
121.9648254201
 23
240.2412750263
 33
0.0
  0
SOLID
  5
F0
330
EC
100
AcDbEntity
  8
KOTY
100
AcDbTrace
 10
121.5802100355
 20
233.3412750264
 30
0.0
 11
121.9648254201
 21
235.8412750264
 31
0.0
 12
121.1955946509
 22
235.8412750264
 32
0.0
 13
121.1955946509
 23
235.8412750264
 33
0.0
  0
LINE
  5
F1
330
EC
100
AcDbEntity
  8
KOTY
100
AcDbLine
 10
111.3802100355
 20
242.7412750263
 30
0.0
 11
122.5802100355
 21
242.7412750263
 31
0.0
  0
LINE
  5
F2
330
EC
100
AcDbEntity
  8
KOTY
100
AcDbLine
 10
111.3802100355
 20
233.3412750264
 30
0.0
 11
122.5802100355
 21
233.3412750264
 31
0.0
  0
LINE
  5
F3
330
EC
100
AcDbEntity
  8
KOTY
100
AcDbLine
 10
121.5802100355
 20
242.7412750263
 30
0.0
 11
121.5802100355
 21
253.3445120297
 31
0.0
  0
LINE
  5
F4
330
EC
100
AcDbEntity
  8
KOTY
100
AcDbLine
 10
121.5802100355
 20
242.7412750263
 30
0.0
 11
121.5802100355
 21
233.3412750264
 31
0.0
  0
MTEXT
  5
F5
330
EC
100
AcDbEntity
  8
KOTY
100
AcDbMText
 10
118.3868507187
 20
247.1392872508
 30
0.0
 40
2.5
 41
0.0
 71
     1
 72
     1
  1
9,4
  7
SLDTEXTSTYLE0
 11
9.953721534637139E-14
 21
1.0
 31
0.0
 73
     1
 44
1.0
  0
ENDBLK
  5
EE
330
EC
100
AcDbEntity
  8
0
100
AcDbBlockEnd
  0
ENDSEC
  0
SECTION
  2
ENTITIES
  0
LINE
  5
5D
330
1F
100
AcDbEntity
  8
OBRYS
100
AcDbLine
 10
111.5802150631
 20
112.682764134
 30
0.0
 11
91.5802043343
 21
112.682764134
 31
0.0
  0
LINE
  5
5E
330
1F
100
AcDbEntity
  8
OBRYS
100
AcDbLine
 10
111.5802150631
 20
212.6827656241
 30
0.0
 11
91.5802043343
 21
212.6827656241
 31
0.0
  0
ARC
  5
5F
330
1F
100
AcDbEntity
  8
OBRYS
100
AcDbCircle
 10
100.0802100355
 20
162.6827656241
 30
0.0
 40
6.000000000000028
100
AcDbArc
 50
114.6243183522
 51
65.3756816478
  0
LINE
  5
60
330
1F
100
AcDbEntity
  8
OBRYS
100
AcDbLine
 10
102.5802117253
 20
168.1371225926
 30
0.0
 11
102.5802117253
 21
184.1827656092
 31
0.0
  0
ARC
  5
61
330
1F
100
AcDbEntity
  8
OBRYS
100
AcDbCircle
 10
100.0802100355
 20
184.1827656241
 30
0.0
 40
2.500000000000043
100
AcDbArc
 50
0.0
 51
180.0
  0
LINE
  5
62
330
1F
100
AcDbEntity
  8
OBRYS
100
AcDbLine
 10
111.5802150631
 20
112.682764134
 30
0.0
 11
111.5802150631
 21
212.6827656241
 31
0.0
  0
LINE
  5
63
330
1F
100
AcDbEntity
  8
OBRYS
100
AcDbLine
 10
97.5802164936
 20
184.1827656092
 30
0.0
 11
97.5802164936
 21
168.1371225926
 31
0.0
  0
LINE
  5
64
330
1F
100
AcDbEntity
  8
OBRYS
100
AcDbLine
 10
91.5802043343
 20
112.682764134
 30
0.0
 11
91.5802043343
 21
212.6827656241
 31
0.0
  0
LINE
  5
65
330
1F
100
AcDbEntity
  8
OBRYS
100
AcDbLine
 10
95.0802039767
 20
159.3661426517
 30
0.0
 11
95.0802039767
 21
165.9993908318
 31
0.0
  0
DIMENSION
  5
66
330
1F
100
AcDbEntity
  8
KOTY
100
AcDbDimension
  2
*D1
 10
102.5802100355
 20
193.8865633447
 30
0.0
 11
84.7217989707
 21
193.8865633447
 31
0.0
 70
   160
 71
     2
 42
-1.0
  3
SLDDIMSTYLE0
100
AcDbAlignedDimension
 13
97.5802100355
 23
184.1827656241
 33
0.0
 14
102.5802100355
 24
184.1827656241
 34
0.0
100
AcDbRotatedDimension
  0
DIMENSION
  5
74
330
1F
100
AcDbEntity
  8
KOTY
100
AcDbDimension
  2
*D2
 10
94.9919214586
 20
159.5032500388
 30
0.0
 11
84.7218089707
 21
153.0857752557
 31
0.0
 70
   163
  1
<>
 71
     1
 42
-1.0
  3
SLDDIMSTYLE1
100
AcDbDiametricDimension
 15
105.1684986124
 25
165.8622812095
 35
0.0
 40
0.0
  0
DIMENSION
  5
80
330
1F
100
AcDbEntity
  8
KOTY
100
AcDbDimension
  2
*D3
 10
121.5802100355
 20
162.6827656241
 30
0.0
 11
121.5802100355
 21
173.3966702847
 31
0.0
 70
   160
 71
     2
 42
-1.0
  3
SLDDIMSTYLE2
100
AcDbAlignedDimension
 13
100.0802100355
 23
184.1827656241
 33
0.0
 14
100.0802100355
 24
162.6827656241
 34
0.0
 50
90.0
100
AcDbRotatedDimension
  0
DIMENSION
  5
8B
330
1F
100
AcDbEntity
  8
KOTY
100
AcDbDimension
  2
*D4
 10
111.5802100355
 20
147.8350215169
 30
0.0
 11
121.5802100355
 21
147.8350215169
 31
0.0
 70
   160
 71
     2
 42
-1.0
  3
SLDDIMSTYLE2
100
AcDbAlignedDimension
 13
100.0802100355
 23
162.6827656241
 33
0.0
 14
111.5802100355
 24
112.6827656241
 34
0.0
100
AcDbRotatedDimension
  0
ARC
  5
95
330
1F
100
AcDbEntity
  8
OBRYS
100
AcDbCircle
 10
111.1191382749
 20
243.7412750263
 30
0.0
 40
1.000000000004962
100
AcDbArc
 50
195.0000000041
 51
270.0
  0
LINE
  5
96
330
1F
100
AcDbEntity
  8
OBRYS
100
AcDbLine
 10
109.9836152459
 20
244.115391535
 30
0.0
 11
110.1532202626
 21
243.4824498121
 31
0.0
  0
ARC
  5
97
330
1F
100
AcDbEntity
  8
OBRYS
100
AcDbCircle
 10
111.3802100355
 20
242.9412750263
 30
0.0
 40
0.2000000000000171
100
AcDbArc
 50
270.0
 51
0.0
  0
LINE
  5
98
330
1F
100
AcDbEntity
  8
OBRYS
100
AcDbLine
 10
111.1191433335
 20
242.7412809555
 30
0.0
 11
111.3802116776
 21
242.7412809555
 31
0.0
  0
LINE
  5
99
330
1F
100
AcDbEntity
  8
OBRYS
100
AcDbLine
 10
110.5801981354
 20
245.741272134
 30
0.0
 11
110.5801981354
 21
244.2412765448
 31
0.0
  0
ARC
  5
9A
330
1F
100
AcDbEntity
  8
OBRYS
100
AcDbCircle
 10
110.2802100355
 20
245.7412750263
 30
0.0
 40
0.3000000000000256
100
AcDbArc
 50
0.0
 51
90.0
  0
LINE
  5
9B
330
1F
100
AcDbEntity
  8
OBRYS
100
AcDbLine
 10
107.980213728
 20
246.0412772123
 30
0.0
 11
110.2802079583
 21
246.0412772123
 31
0.0
  0
ARC
  5
9C
330
1F
100
AcDbEntity
  8
OBRYS
100
AcDbCircle
 10
107.9802100355
 20
245.7412750263
 30
0.0
 40
0.2999999999999687
100
AcDbArc
 50
90.0
 51
180.0
  0
LINE
  5
9D
330
1F
100
AcDbEntity
  8
OBRYS
100
AcDbLine
 10
107.6802235508
 20
244.2412765448
 30
0.0
 11
107.6802235508
 21
245.741272134
 31
0.0
  0
LINE
  5
9E
330
1F
100
AcDbEntity
  8
OBRYS
100
AcDbLine
 10
108.1802171135
 20
244.2412765448
 30
0.0
 11
107.6802235508
 21
244.2412765448
 31
0.0
  0
ARC
  5
9F
330
1F
100
AcDbEntity
  8
OBRYS
100
AcDbCircle
 10
108.1802100355
 20
244.1412750263
 30
0.0
 40
0.1000000000330134
100
AcDbArc
 50
344.9999999977
 51
90.0
  0
LINE
  5
A0
330
1F
100
AcDbEntity
  8
OBRYS
100
AcDbLine
 10
108.1072014237
 20
243.4824498121
 30
0.0
 11
108.2768064404
 21
244.115391535
 31
0.0
  0
ARC
  5
A1
330
1F
100
AcDbEntity
  8
OBRYS
100
AcDbCircle
 10
107.1412817962
 20
243.7412750263
 30
0.0
 40
1.0
100
AcDbArc
 50
270.0
 51
344.9999999977
  0
LINE
  5
A2
330
1F
100
AcDbEntity
  8
OBRYS
100
AcDbLine
 10
106.8802100087
 20
242.7412809555
 30
0.0
 11
107.1412783528
 21
242.7412809555
 31
0.0
  0
ARC
  5
A3
330
1F
100
AcDbEntity
  8
OBRYS
100
AcDbCircle
 10
106.8802100355
 20
242.9412750263
 30
0.0
 40
0.1999999999999886
100
AcDbArc
 50
180.0
 51
270.0
  0
LINE
  5
A4
330
1F
100
AcDbEntity
  8
OBRYS
100
AcDbLine
 10
106.6802066231
 20
245.741272134
 30
0.0
 11
106.6802066231
 21
242.9412694399
 31
0.0
  0
ARC
  5
A5
330
1F
100
AcDbEntity
  8
OBRYS
100
AcDbCircle
 10
106.3802100355
 20
245.7412750263
 30
0.0
 40
0.3000000000000398
100
AcDbArc
 50
0.0
 51
90.0
  0
LINE
  5
A6
330
1F
100
AcDbEntity
  8
OBRYS
100
AcDbLine
 10
93.780211773
 20
246.0412772123
 30
0.0
 11
106.380216446
 21
246.0412772123
 31
0.0
  0
ARC
  5
A7
330
1F
100
AcDbEntity
  8
OBRYS
100
AcDbCircle
 10
93.7802100355
 20
245.0412750263
 30
0.0
 40
1.0
100
AcDbArc
 50
90.0
 51
270.0
  0
LINE
  5
A8
330
1F
100
AcDbEntity
  8
OBRYS
100
AcDbLine
 10
94.8802154923
 20
244.0412731592
 30
0.0
 11
93.780211773
 21
244.0412731592
 31
0.0
  0
ARC
  5
A9
330
1F
100
AcDbEntity
  8
OBRYS
100
AcDbCircle
 10
110.0802100355
 20
244.1412750263
 30
0.0
 40
0.1000000000000013
100
AcDbArc
 50
90.0
 51
195.0000000041
  0
LINE
  5
AA
330
1F
100
AcDbEntity
  8
OBRYS
100
AcDbLine
 10
110.5801981354
 20
244.2412765448
 30
0.0
 11
110.0802045727
 21
244.2412765448
 31
0.0
  0
LINE
  5
AB
330
1F
100
AcDbEntity
  8
OBRYS
100
AcDbLine
 10
92.7802097464
 20
240.2912767355
 30
0.0
 11
95.0802039767
 21
242.5912709658
 31
0.0
  0
LINE
  5
AC
330
1F
100
AcDbEntity
  8
OBRYS
100
AcDbLine
 10
92.7802097464
 20
235.7912750666
 30
0.0
 11
92.7802097464
 21
240.2912767355
 31
0.0
  0
LINE
  5
AD
330
1F
100
AcDbEntity
  8
OBRYS
100
AcDbLine
 10
95.0802039767
 20
233.4912808363
 30
0.0
 11
92.7802097464
 21
235.7912750666
 31
0.0
  0
LINE
  5
AE
330
1F
100
AcDbEntity
  8
OBRYS
100
AcDbLine
 10
95.0802039767
 20
232.2412820284
 30
0.0
 11
95.0802039767
 21
233.4912808363
 31
0.0
  0
ARC
  5
AF
330
1F
100
AcDbEntity
  8
OBRYS
100
AcDbCircle
 10
94.8802100355
 20
232.2412750264
 30
0.0
 40
0.2000000000000171
100
AcDbArc
 50
270.0
 51
0.0
  0
LINE
  5
B0
330
1F
100
AcDbEntity
  8
OBRYS
100
AcDbLine
 10
93.780211773
 20
232.0412786428
 30
0.0
 11
94.8802154923
 21
232.0412786428
 31
0.0
  0
ARC
  5
B1
330
1F
100
AcDbEntity
  8
OBRYS
100
AcDbCircle
 10
93.7802100355
 20
231.0412750264
 30
0.0
 40
1.0
100
AcDbArc
 50
90.0
 51
270.0
  0
LINE
  5
B2
330
1F
100
AcDbEntity
  8
OBRYS
100
AcDbLine
 10
106.380216446
 20
230.0412745897
 30
0.0
 11
93.780211773
 21
230.0412745897
 31
0.0
  0
ARC
  5
B3
330
1F
100
AcDbEntity
  8
OBRYS
100
AcDbCircle
 10
106.3802100355
 20
230.3412750264
 30
0.0
 40
0.3000000000000114
100
AcDbArc
 50
270.0
 51
0.0
  0
LINE
  5
B4
330
1F
100
AcDbEntity
  8
OBRYS
100
AcDbLine
 10
106.6802066231
 20
233.1412823622
 30
0.0
 11
106.6802066231
 21
230.341279668
 31
0.0
  0
ARC
  5
B5
330
1F
100
AcDbEntity
  8
OBRYS
100
AcDbCircle
 10
106.8802100355
 20
233.1412750264
 30
0.0
 40
0.1999999999999886
100
AcDbArc
 50
90.0
 51
180.0
  0
LINE
  5
B6
330
1F
100
AcDbEntity
  8
OBRYS
100
AcDbLine
 10
107.1412783528
 20
233.3412708466
 30
0.0
 11
106.8802100087
 21
233.3412708466
 31
0.0
  0
ARC
  5
B7
330
1F
100
AcDbEntity
  8
OBRYS
100
AcDbCircle
 10
107.1412817962
 20
232.3412750264
 30
0.0
 40
0.9999999999999716
100
AcDbArc
 50
15.0000000023
 51
90.0
  0
LINE
  5
B8
330
1F
100
AcDbEntity
  8
OBRYS
100
AcDbLine
 10
108.2768064404
 20
231.9671602671
 30
0.0
 11
108.1072014237
 21
232.6000870888
 31
0.0
  0
ARC
  5
B9
330
1F
100
AcDbEntity
  8
OBRYS
100
AcDbCircle
 10
108.1802100355
 20
231.9412750264
 30
0.0
 40
0.1000000000330134
100
AcDbArc
 50
270.0
 51
15.0000000023
  0
LINE
  5
BA
330
1F
100
AcDbEntity
  8
OBRYS
100
AcDbLine
 10
107.6802235508
 20
231.8412752573
 30
0.0
 11
108.1802171135
 21
231.8412752573
 31
0.0
  0
LINE
  5
BB
330
1F
100
AcDbEntity
  8
OBRYS
100
AcDbLine
 10
107.6802235508
 20
230.341279668
 30
0.0
 11
107.6802235508
 21
231.8412752573
 31
0.0
  0
ARC
  5
BC
330
1F
100
AcDbEntity
  8
OBRYS
100
AcDbCircle
 10
107.9802100355
 20
230.3412750263
 30
0.0
 40
0.3000000000000114
100
AcDbArc
 50
180.0
 51
270.0
  0
LINE
  5
BD
330
1F
100
AcDbEntity
  8
OBRYS
100
AcDbLine
 10
110.2802079583
 20
230.0412745897
 30
0.0
 11
107.980213728
 21
230.0412745897
 31
0.0
  0
ARC
  5
BE
330
1F
100
AcDbEntity
  8
OBRYS
100
AcDbCircle
 10
110.2802100355
 20
230.3412750263
 30
0.0
 40
0.3000000000000256
100
AcDbArc
 50
270.0
 51
0.0
  0
LINE
  5
BF
330
1F
100
AcDbEntity
  8
OBRYS
100
AcDbLine
 10
110.5801981354
 20
231.8412752573
 30
0.0
 11
110.5801981354
 21
230.341279668
 31
0.0
  0
LINE
  5
C0
330
1F
100
AcDbEntity
  8
OBRYS
100
AcDbLine
 10
110.0802045727
 20
231.8412752573
 30
0.0
 11
110.5801981354
 21
231.8412752573
 31
0.0
  0
ARC
  5
C1
330
1F
100
AcDbEntity
  8
OBRYS
100
AcDbCircle
 10
110.0802100355
 20
231.9412750263
 30
0.0
 40
0.0999999999999943
100
AcDbArc
 50
164.9999999959
 51
270.0
  0
LINE
  5
C2
330
1F
100
AcDbEntity
  8
OBRYS
100
AcDbLine
 10
110.1532202626
 20
232.6000870888
 30
0.0
 11
109.9836152459
 21
231.9671602671
 31
0.0
  0
ARC
  5
C3
330
1F
100
AcDbEntity
  8
OBRYS
100
AcDbCircle
 10
111.1191382749
 20
232.3412750264
 30
0.0
 40
1.000000000004955
100
AcDbArc
 50
90.0
 51
164.9999999959
  0
LINE
  5
C4
330
1F
100
AcDbEntity
  8
OBRYS
100
AcDbLine
 10
111.3802116776
 20
233.3412708466
 30
0.0
 11
111.1191433335
 21
233.3412708466
 31
0.0
  0
ARC
  5
C5
330
1F
100
AcDbEntity
  8
OBRYS
100
AcDbCircle
 10
111.3802100355
 20
233.1412750264
 30
0.0
 40
0.2000000000000171
100
AcDbArc
 50
0.0
 51
90.0
  0
LINE
  5
C6
330
1F
100
AcDbEntity
  8
OBRYS
100
AcDbLine
 10
111.5802150631
 20
229.8412712042
 30
0.0
 11
111.5802150631
 21
233.1412823622
 31
0.0
  0
ARC
  5
C7
330
1F
100
AcDbEntity
  8
OBRYS
100
AcDbCircle
 10
110.7802100355
 20
229.8412750264
 30
0.0
 40
0.8000000000000398
100
AcDbArc
 50
270.0
 51
0.0
  0
LINE
  5
C8
330
1F
100
AcDbEntity
  8
OBRYS
100
AcDbLine
 10
92.3802029753
 20
229.0412725632
 30
0.0
 11
110.780201521
 21
229.0412725632
 31
0.0
  0
ARC
  5
C9
330
1F
100
AcDbEntity
  8
OBRYS
100
AcDbCircle
 10
92.3802100355
 20
229.8412750264
 30
0.0
 40
0.8000000000000398
100
AcDbArc
 50
180.0
 51
270.0
  0
LINE
  5
CA
330
1F
100
AcDbEntity
  8
OBRYS
100
AcDbLine
 10
91.5802043343
 20
232.4412705128
 30
0.0
 11
91.5802043343
 21
229.8412712042
 31
0.0
  0
ARC
  5
CB
330
1F
100
AcDbEntity
  8
OBRYS
100
AcDbCircle
 10
91.5802100355
 20
233.6412750264
 30
0.0
 40
1.199999999999989
100
AcDbArc
 50
270.0
 51
90.0
  0
LINE
  5
CC
330
1F
100
AcDbEntity
  8
OBRYS
100
AcDbLine
 10
91.5802043343
 20
237.4350519602
 30
0.0
 11
91.5802043343
 21
234.841281337
 31
0.0
  0
LINE
  5
CD
330
1F
100
AcDbEntity
  8
OBRYS
100
AcDbLine
 10
91.9302028084
 20
238.041275901
 30
0.0
 11
91.5802043343
 21
237.4350519602
 31
0.0
  0
LINE
  5
CE
330
1F
100
AcDbEntity
  8
OBRYS
100
AcDbLine
 10
91.5802043343
 20
238.6474998419
 30
0.0
 11
91.9302028084
 21
238.041275901
 31
0.0
  0
LINE
  5
CF
330
1F
100
AcDbEntity
  8
OBRYS
100
AcDbLine
 10
91.5802043343
 20
241.2412704651
 30
0.0
 11
91.5802043343
 21
238.6474998419
 31
0.0
  0
ARC
  5
D0
330
1F
100
AcDbEntity
  8
OBRYS
100
AcDbCircle
 10
91.5802100356
 20
242.4412750264
 30
0.0
 40
1.200000000000017
100
AcDbArc
 50
270.0
 51
90.0000000021
  0
LINE
  5
D1
330
1F
100
AcDbEntity
  8
OBRYS
100
AcDbLine
 10
91.5802043343
 20
247.0412792389
 30
0.0
 11
91.5802043343
 21
243.6412812893
 31
0.0
  0
LINE
  5
D2
330
1F
100
AcDbEntity
  8
OBRYS
100
AcDbLine
 10
111.5802150631
 20
247.0412792389
 30
0.0
 11
91.5802043343
 21
247.0412792389
 31
0.0
  0
LINE
  5
D3
330
1F
100
AcDbEntity
  8
OBRYS
100
AcDbLine
 10
111.5802150631
 20
242.9412694399
 30
0.0
 11
111.5802150631
 21
247.0412792389
 31
0.0
  0
ARC
  5
D4
330
1F
100
AcDbEntity
  8
OBRYS
100
AcDbCircle
 10
94.8802100355
 20
243.8412750263
 30
0.0
 40
0.1999999999999886
100
AcDbArc
 50
0.0
 51
90.0
  0
LINE
  5
D5
330
1F
100
AcDbEntity
  8
OBRYS
100
AcDbLine
 10
95.0802039767
 20
242.5912709658
 30
0.0
 11
95.0802039767
 21
243.8412697737
 31
0.0
  0
DIMENSION
  5
D6
330
1F
100
AcDbEntity
  8
KOTY
100
AcDbDimension
  2
*D5
 10
79.0414325779
 20
247.0412750263
 30
0.0
 11
79.0414325779
 21
238.5077493762
 31
0.0
 70
   160
 71
     2
 42
-1.0
  3
SLDDIMSTYLE3
100
AcDbAlignedDimension
 13
92.3802100355
 23
229.0412750264
 33
0.0
 14
91.5802100355
 24
247.0412750263
 34
0.0
 50
90.0
100
AcDbRotatedDimension
  0
DIMENSION
  5
E1
330
1F
100
AcDbEntity
  8
KOTY
100
AcDbDimension
  2
*D6
 10
111.5802100355
 20
257.0412750263
 30
0.0
 11
102.1686386059
 21
257.0412750263
 31
0.0
 70
   160
 71
     2
 42
-1.0
  3
SLDDIMSTYLE3
100
AcDbAlignedDimension
 13
91.5802100355
 23
247.0412750263
 33
0.0
 14
111.5802100355
 24
247.0412750263
 34
0.0
100
AcDbRotatedDimension
  0
DIMENSION
  5
EB
330
1F
100
AcDbEntity
  8
KOTY
100
AcDbDimension
  2
*D7
 10
121.5802100355
 20
233.3412750264
 30
0.0
 11
121.5802100355
 21
249.4481496402
 31
0.0
 70
   160
 71
     2
 42
-1.0
  3
SLDDIMSTYLE2
100
AcDbAlignedDimension
 13
111.3802100355
 23
242.7412750263
 33
0.0
 14
111.3802100355
 24
233.3412750264
 34
0.0
 50
90.0
100
AcDbRotatedDimension
  0
ENDSEC
  0
SECTION
  2
OBJECTS
  0
DICTIONARY
  5
C
330
0
100
AcDbDictionary
281
     1
  3
ACAD_GROUP
350
D
  3
ACAD_LAYOUT
350
1A
  3
ACAD_MLINESTYLE
350
17
  3
ACAD_PLOTSETTINGS
350
19
  3
ACAD_PLOTSTYLENAME
350
E
  0
DICTIONARY
  5
D
102
{ACAD_REACTORS
330
C
102
}
330
C
100
AcDbDictionary
281
     1
  0
DICTIONARY
  5
1A
102
{ACAD_REACTORS
330
C
102
}
330
C
100
AcDbDictionary
281
     1
  3
Layout1
350
1E
  3
Layout2
350
26
  3
Model
350
22
  0
DICTIONARY
  5
17
102
{ACAD_REACTORS
330
C
102
}
330
C
100
AcDbDictionary
281
     1
  3
Standard
350
18
  0
DICTIONARY
  5
19
102
{ACAD_REACTORS
330
C
102
}
330
C
100
AcDbDictionary
281
     1
  0
ACDBDICTIONARYWDFLT
  5
E
102
{ACAD_REACTORS
330
C
102
}
330
C
100
AcDbDictionary
281
     1
  3
Normal
350
F
100
AcDbDictionaryWithDefault
340
F
  0
LAYOUT
  5
1E
102
{ACAD_REACTORS
330
1A
102
}
330
1A
100
AcDbPlotSettings
  1

  2
none_device
  4

  6

 40
0.0
 41
0.0
 42
0.0
 43
0.0
 44
0.0
 45
0.0
 46
0.0
 47
0.0
 48
0.0
 49
0.0
140
0.0
141
0.0
142
1.0
143
1.0
 70
   688
 72
     0
 73
     0
 74
     5
  7

 75
    16
147
1.0
148
0.0
149
0.0
100
AcDbLayout
  1
Layout1
 70
     1
 71
     1
 10
0.0
 20
0.0
 11
420.0
 21
297.0
 12
0.0
 22
0.0
 32
0.0
 14
1.0000000000E+20
 24
1.0000000000E+20
 34
1.0000000000E+20
 15
-1.0000000000E+20
 25
-1.0000000000E+20
 35
-1.0000000000E+20
146
0.0
 13
0.0
 23
0.0
 33
0.0
 16
1.0
 26
0.0
 36
0.0
 17
0.0
 27
1.0
 37
0.0
 76
     0
330
1B
  0
LAYOUT
  5
26
102
{ACAD_REACTORS
330
1A
102
}
330
1A
100
AcDbPlotSettings
  1

  2
none_device
  4

  6

 40
0.0
 41
0.0
 42
0.0
 43
0.0
 44
0.0
 45
0.0
 46
0.0
 47
0.0
 48
0.0
 49
0.0
140
0.0
141
0.0
142
1.0
143
1.0
 70
   688
 72
     0
 73
     0
 74
     5
  7

 75
    16
147
1.0
148
0.0
149
0.0
100
AcDbLayout
  1
Layout2
 70
     1
 71
     2
 10
0.0
 20
0.0
 11
0.0
 21
0.0
 12
0.0
 22
0.0
 32
0.0
 14
0.0
 24
0.0
 34
0.0
 15
0.0
 25
0.0
 35
0.0
146
0.0
 13
0.0
 23
0.0
 33
0.0
 16
1.0
 26
0.0
 36
0.0
 17
0.0
 27
1.0
 37
0.0
 76
     0
330
23
  0
LAYOUT
  5
22
102
{ACAD_REACTORS
330
1A
102
}
330
1A
100
AcDbPlotSettings
  1

  2
none_device
  4

  6

 40
0.0
 41
0.0
 42
0.0
 43
0.0
 44
0.0
 45
0.0
 46
0.0
 47
0.0
 48
0.0
 49
0.0
140
0.0
141
0.0
142
1.0
143
1.0
 70
  1712
 72
     0
 73
     0
 74
     0
  7

 75
     0
147
1.0
148
0.0
149
0.0
100
AcDbLayout
  1
Model
 70
     1
 71
     0
 10
0.0
 20
0.0
 11
210.0
 21
297.0
 12
0.0
 22
0.0
 32
0.0
 14
0.0
 24
0.0
 34
0.0
 15
210.0
 25
297.0
 35
0.0
146
0.0
 13
0.0
 23
0.0
 33
0.0
 16
1.0
 26
0.0
 36
0.0
 17
0.0
 27
1.0
 37
0.0
 76
     0
330
1F
331
29
  0
MLINESTYLE
  5
18
102
{ACAD_REACTORS
330
17
102
}
330
17
100
AcDbMlineStyle
  2
Standard
 70
     0
  3

 62
   256
 51
90.0
 52
90.0
 71
     2
 49
0.5
 62
   256
  6
BYLAYER
 49
-0.5
 62
   256
  6
BYLAYER
  0
ACDBPLACEHOLDER
  5
F
102
{ACAD_REACTORS
330
E
102
}
330
E
  0
ENDSEC
  0
EOF
