  0
SECTION
  2
HEADER
  9
$ACADVER
  1
AC1012
  9
$DWGCODEPAGE
  3
ansi_1250
  9
$INSBASE
 10
0.0
 20
0.0
 30
0.0
  9
$EXTMIN
 10
0.0
 20
0.0
 30
0.0
  9
$EXTMAX
 10
210.0
 20
297.0
 30
0.0
  9
$LIMMIN
 10
0.0
 20
0.0
  9
$LIMMAX
 10
210.0
 20
297.0
  9
$ORTHOMODE
 70
     0
  9
$REGENMODE
 70
     1
  9
$FILLMODE
 70
     1
  9
$QTEXTMODE
 70
     0
  9
$MIRRTEXT
 70
     1
  9
$DRAGMODE
 70
     2
  9
$LTSCALE
 40
1.0
  9
$OSMODE
 70
    37
  9
$ATTMODE
 70
     1
  9
$TEXTSIZE
 40
2.5
  9
$TRACEWID
 40
1.0
  9
$TEXTSTYLE
  7
STANDARD
  9
$CLAYER
  8
0
  9
$CELTYPE
  6
BYLAYER
  9
$CECOLOR
 62
   256
  9
$CELTSCALE
 40
1.0
  9
$DELOBJ
 70
     1
  9
$DISPSILH
 70
     0
  9
$DIMSCALE
 40
1.0
  9
$DIMASZ
 40
2.5
  9
$DIMEXO
 40
0.0
  9
$DIMDLI
 40
3.75
  9
$DIMRND
 40
0.0
  9
$DIMDLE
 40
0.0
  9
$DIMEXE
 40
1.0
  9
$DIMTP
 40
0.0
  9
$DIMTM
 40
0.0
  9
$DIMTXT
 40
2.5
  9
$DIMCEN
 40
2.5
  9
$DIMTSZ
 40
0.0
  9
$DIMTOL
 70
     0
  9
$DIMLIM
 70
     0
  9
$DIMTIH
 70
     1
  9
$DIMTOH
 70
     1
  9
$DIMSE1
 70
     0
  9
$DIMSE2
 70
     0
  9
$DIMTAD
 70
     1
  9
$DIMZIN
 70
     1
  9
$DIMBLK
  1

  9
$DIMASO
 70
     1
  9
$DIMSHO
 70
     1
  9
$DIMPOST
  1

  9
$DIMAPOST
  1

  9
$DIMALT
 70
     0
  9
$DIMALTD
 70
     3
  9
$DIMALTF
 40
0.0393700787
  9
$DIMLFAC
 40
10.0
  9
$DIMTOFL
 70
     1
  9
$DIMTVP
 40
0.0
  9
$DIMTIX
 70
     0
  9
$DIMSOXD
 70
     0
  9
$DIMSAH
 70
     0
  9
$DIMBLK1
  1

  9
$DIMBLK2
  1

  9
$DIMSTYLE
  2
ISO-25
  9
$DIMCLRD
 70
     0
  9
$DIMCLRE
 70
     0
  9
$DIMCLRT
 70
     0
  9
$DIMTFAC
 40
1.0
  9
$DIMGAP
 40
1.524
  9
$DIMJUST
 70
     0
  9
$DIMSD1
 70
     0
  9
$DIMSD2
 70
     0
  9
$DIMTOLJ
 70
     0
  9
$DIMTZIN
 70
     1
  9
$DIMALTZ
 70
     0
  9
$DIMALTTZ
 70
     0
  9
$DIMFIT
 70
     3
  9
$DIMUPT
 70
     0
  9
$DIMUNIT
 70
     2
  9
$DIMDEC
 70
     2
  9
$DIMTDEC
 70
     2
  9
$DIMALTU
 70
     2
  9
$DIMALTTD
 70
     3
  9
$DIMTXSTY
  7
STANDARD
  9
$DIMAUNIT
 70
     0
  9
$LUNITS
 70
     2
  9
$LUPREC
 70
     0
  9
$SKETCHINC
 40
1.0
  9
$FILLETRAD
 40
10.0
  9
$AUNITS
 70
     0
  9
$AUPREC
 70
     2
  9
$MENU
  1
.
  9
$ELEVATION
 40
0.0
  9
$PELEVATION
 40
0.0
  9
$THICKNESS
 40
0.0
  9
$LIMCHECK
 70
     0
  9
$CHAMFERA
 40
10.0
  9
$CHAMFERB
 40
10.0
  9
$CHAMFERC
 40
20.0
  9
$CHAMFERD
 40
0.0
  9
$SKPOLY
 70
     0
  9
$TDCREATE
 40
2455618.54614228
  9
$TDUPDATE
 40
2455618.546142292
  9
$TDINDWG
 40
0.0000000116
  9
$TDUSRTIMER
 40
0.0000000116
  9
$USRTIMER
 70
     1
  9
$ANGBASE
 50
0.0
  9
$ANGDIR
 70
     0
  9
$PDMODE
 70
     0
  9
$PDSIZE
 40
-1.0
  9
$PLINEWID
 40
0.0
  9
$COORDS
 70
     1
  9
$SPLFRAME
 70
     0
  9
$SPLINETYPE
 70
     6
  9
$SPLINESEGS
 70
     8
  9
$ATTDIA
 70
     0
  9
$ATTREQ
 70
     1
  9
$HANDLING
 70
     1
  9
$HANDSEED
  5
17C
  9
$SURFTAB1
 70
     6
  9
$SURFTAB2
 70
     6
  9
$SURFTYPE
 70
     6
  9
$SURFU
 70
     6
  9
$SURFV
 70
     6
  9
$UCSNAME
  2

  9
$UCSORG
 10
0.0
 20
0.0
 30
0.0
  9
$UCSXDIR
 10
1.0
 20
0.0
 30
0.0
  9
$UCSYDIR
 10
0.0
 20
1.0
 30
0.0
  9
$PUCSNAME
  2

  9
$PUCSORG
 10
0.0
 20
0.0
 30
0.0
  9
$PUCSXDIR
 10
1.0
 20
0.0
 30
0.0
  9
$PUCSYDIR
 10
0.0
 20
1.0
 30
0.0
  9
$USERI1
 70
     0
  9
$USERI2
 70
     0
  9
$USERI3
 70
     0
  9
$USERI4
 70
     0
  9
$USERI5
 70
     0
  9
$USERR1
 40
0.0
  9
$USERR2
 40
0.0
  9
$USERR3
 40
0.0
  9
$USERR4
 40
0.0
  9
$USERR5
 40
0.0
  9
$WORLDVIEW
 70
     1
  9
$SHADEDGE
 70
     3
  9
$SHADEDIF
 70
    70
  9
$TILEMODE
 70
     1
  9
$MAXACTVP
 70
    64
  9
$PINSBASE
 10
0.0
 20
0.0
 30
0.0
  9
$PLIMCHECK
 70
     0
  9
$PEXTMIN
 10
1.0000000000E+20
 20
1.0000000000E+20
 30
1.0000000000E+20
  9
$PEXTMAX
 10
-1.0000000000E+20
 20
-1.0000000000E+20
 30
-1.0000000000E+20
  9
$PLIMMIN
 10
0.0
 20
0.0
  9
$PLIMMAX
 10
420.0
 20
297.0
  9
$UNITMODE
 70
     0
  9
$VISRETAIN
 70
     1
  9
$PLINEGEN
 70
     0
  9
$PSLTSCALE
 70
     1
  9
$TREEDEPTH
 70
  3020
  9
$PICKSTYLE
 70
     1
  9
$CMLSTYLE
  2
STANDARD
  9
$CMLJUST
 70
     0
  9
$CMLSCALE
 40
20.0
  9
$SAVEIMAGES
 70
     1
  0
ENDSEC
  0
SECTION
  2
CLASSES
  0
CLASS
  1
ACDBDICTIONARYWDFLT
  2
AcDbDictionaryWithDefault
  3
ObjectDBX Classes
 90
    32768
280
     0
281
     0
  0
CLASS
  1
VISUALSTYLE
  2
AcDbVisualStyle
  3
ObjectDBX Classes
 90
     4095
280
     0
281
     0
  0
CLASS
  1
MATERIAL
  2
AcDbMaterial
  3
ObjectDBX Classes
 90
     1153
280
     0
281
     0
  0
CLASS
  1
XRECORD
  2
AcDbXrecord
  3
AutoCAD 2000
 90
    32768
280
     0
281
     0
  0
ENDSEC
  0
SECTION
  2
TABLES
  0
TABLE
  2
VPORT
  5
8
330
0
100
AcDbSymbolTable
 70
     1
  0
VPORT
  5
29
330
8
100
AcDbSymbolTableRecord
100
AcDbViewportTableRecord
  2
*ACTIVE
 70
     0
 10
0.0
 20
0.0
 11
1.0
 21
1.0
 12
105.0
 22
148.5
 13
0.0
 23
0.0
 14
10.0
 24
10.0
 15
10.0
 25
10.0
 16
0.0
 26
0.0
 36
1.0
 17
0.0
 27
0.0
 37
0.0
 40
297.0
 41
0.7070707071
 42
50.0
 43
0.0
 44
0.0
 50
0.0
 51
0.0
 71
     0
 72
  2000
 73
     1
 74
     3
 75
     0
 76
     0
 77
     0
 78
     0
  0
ENDTAB
  0
TABLE
  2
LTYPE
  5
5
330
0
100
AcDbSymbolTable
 70
    11
  0
LTYPE
  5
14
330
5
100
AcDbSymbolTableRecord
100
AcDbLinetypeTableRecord
  2
BYBLOCK
 70
     0
  3

 72
    65
 73
     0
 40
0.0
  0
LTYPE
  5
15
330
5
100
AcDbSymbolTableRecord
100
AcDbLinetypeTableRecord
  2
BYLAYER
 70
     0
  3

 72
    65
 73
     0
 40
0.0
  0
LTYPE
  5
16
330
5
100
AcDbSymbolTableRecord
100
AcDbLinetypeTableRecord
  2
CONTINUOUS
 70
     0
  3
Solid line
 72
    65
 73
     0
 40
0.0
  0
LTYPE
  5
3F
330
5
100
AcDbSymbolTableRecord
100
AcDbLinetypeTableRecord
  2
SLD-PLNÁ
 70
     0
  3
SolidWorks Line Style
 72
    65
 73
     0
 40
0.0
  0
LTYPE
  5
40
330
5
100
AcDbSymbolTableRecord
100
AcDbLinetypeTableRecord
  2
SLD-ČÁRKOVANÁ
 70
     0
  3
SolidWorks Line Style
 72
    65
 73
     2
 40
1.905
 49
1.27
 74
     0
 49
-0.635
 74
     0
  0
LTYPE
  5
41
330
5
100
AcDbSymbolTableRecord
100
AcDbLinetypeTableRecord
  2
SLD-DVOJITĚ-ČERCHOVANÁ
 70
     0
  3
SolidWorks Line Style
 72
    65
 73
     6
 40
12.7
 49
6.35
 74
     0
 49
-1.27
 74
     0
 49
1.27
 74
     0
 49
-1.27
 74
     0
 49
1.27
 74
     0
 49
-1.27
 74
     0
  0
LTYPE
  5
42
330
5
100
AcDbSymbolTableRecord
100
AcDbLinetypeTableRecord
  2
SLD-ČERCHOVANÁ
 70
     0
  3
SolidWorks Line Style
 72
    65
 73
     4
 40
10.16
 49
6.35
 74
     0
 49
-1.27
 74
     0
 49
1.27
 74
     0
 49
-1.27
 74
     0
  0
LTYPE
  5
43
330
5
100
AcDbSymbolTableRecord
100
AcDbLinetypeTableRecord
  2
SLD-OSA
 70
     0
  3
SolidWorks Line Style
 72
    65
 73
     4
 40
19.05
 49
15.24
 74
     0
 49
-1.27
 74
     0
 49
1.27
 74
     0
 49
-1.27
 74
     0
  0
LTYPE
  5
44
330
5
100
AcDbSymbolTableRecord
100
AcDbLinetypeTableRecord
  2
SLD-TEČKOVANÁ
 70
     0
  3
SolidWorks Line Style
 72
    65
 73
     2
 40
0.635
 49
0.0
 74
     0
 49
-0.635
 74
     0
  0
LTYPE
  5
45
330
5
100
AcDbSymbolTableRecord
100
AcDbLinetypeTableRecord
  2
SLD-HRUBÁ-TENKÁ-ČERCHOVANÁ
 70
     0
  3
SolidWorks Line Style
 72
    65
 73
     4
 40
10.16
 49
6.35
 74
     0
 49
-1.27
 74
     0
 49
1.27
 74
     0
 49
-1.27
 74
     0
  0
LTYPE
  5
46
330
5
100
AcDbSymbolTableRecord
100
AcDbLinetypeTableRecord
  2
SLD-ŘEZ-1
 70
     0
  3
SolidWorks Line Style
 72
    65
 73
     4
 40
8.128
 49
5.08
 74
     0
 49
-1.016
 74
     0
 49
1.016
 74
     0
 49
-1.016
 74
     0
  0
LTYPE
  5
47
330
5
100
AcDbSymbolTableRecord
100
AcDbLinetypeTableRecord
  2
SLD-ŘEZ-2
 70
     0
  3
SolidWorks Line Style
 72
    65
 73
     2
 40
5080.0
 49
0.0
 74
     0
 49
-5080.0
 74
     0
  0
LTYPE
  5
48
330
5
100
AcDbSymbolTableRecord
100
AcDbLinetypeTableRecord
  2
SLD-ŘEZ3
 70
     0
  3
SolidWorks Line Style
 72
    65
 73
     4
 40
9.144
 49
4.572
 74
     0
 49
-1.524
 74
     0
 49
1.524
 74
     0
 49
-1.524
 74
     0
  0
ENDTAB
  0
TABLE
  2
LAYER
  5
2
330
0
100
AcDbSymbolTable
 70
     2
  0
LAYER
  5
10
330
2
100
AcDbSymbolTableRecord
100
AcDbLayerTableRecord
  2
0
 70
     0
 62
     7
  6
CONTINUOUS
  0
LAYER
  5
49
330
2
100
AcDbSymbolTableRecord
100
AcDbLayerTableRecord
  2
FORMAT
 70
     0
 62
     7
  6
SLD-PLNÁ
  0
ENDTAB
  0
TABLE
  2
STYLE
  5
3
330
0
100
AcDbSymbolTable
 70
     2
  0
STYLE
  5
11
330
3
100
AcDbSymbolTableRecord
100
AcDbTextStyleTableRecord
  2
STANDARD
 70
     0
 40
0.0
 41
1.0
 50
0.0
 71
     0
 42
2.5
  3
txt
  4

  0
STYLE
  5
87
330
3
100
AcDbSymbolTableRecord
100
AcDbTextStyleTableRecord
  2
SLDTEXTSTYLE0
 70
     0
 40
0.0
 41
0.75
 50
0.0
 71
     0
 42
0.2
  3
TXT
  4

  0
ENDTAB
  0
TABLE
  2
VIEW
  5
6
330
0
100
AcDbSymbolTable
 70
     0
  0
ENDTAB
  0
TABLE
  2
UCS
  5
7
330
0
100
AcDbSymbolTable
 70
     0
  0
ENDTAB
  0
TABLE
  2
APPID
  5
9
330
0
100
AcDbSymbolTable
 70
     1
  0
APPID
  5
12
330
9
100
AcDbSymbolTableRecord
100
AcDbRegAppTableRecord
  2
ACAD
 70
     0
  0
ENDTAB
  0
TABLE
  2
DIMSTYLE
  5
A
330
0
100
AcDbSymbolTable
 70
     3
  0
DIMSTYLE
105
27
330
A
100
AcDbSymbolTableRecord
100
AcDbDimStyleTableRecord
  2
ISO-25
 70
     0
  3

  4

  5

  6

  7

 40
1.0
 41
2.5
 42
0.625
 43
3.75
 44
1.25
 45
0.0
 46
0.0
 47
0.0
 48
0.0
140
2.5
141
2.5
142
0.0
143
0.0393700787
144
1.0
145
0.0
146
1.0
147
0.625
 71
     0
 72
     0
 73
     0
 74
     0
 75
     0
 76
     0
 77
     1
 78
     8
170
     0
171
     3
172
     1
173
     0
174
     0
175
     0
176
     0
177
     0
178
     0
270
     2
271
     2
272
     2
273
     2
274
     3
340
11
275
     0
280
     0
281
     0
282
     0
283
     0
284
     8
285
     0
286
     0
287
     3
288
     0
  0
DIMSTYLE
105
88
102
{ACAD_REACTORS
330
86
330
A9
330
B3
330
BC
102
}
330
A
100
AcDbSymbolTableRecord
100
AcDbDimStyleTableRecord
  2
SLDDIMSTYLE0
 70
     0
  3

  4

  5

  6

  7

 40
1.0
 41
2.5
 42
0.0625
 43
0.38
 44
0.0
 45
0.000000001
 46
0.0
 47
0.0
 48
0.0
140
5.8208333333
141
0.09
142
0.0
143
25.4
144
1.0
145
0.0
146
1.0
147
1.4552083333
 71
     0
 72
     0
 73
     0
 74
     0
 75
     0
 76
     0
 77
     1
 78
    12
170
     0
171
     2
172
     0
173
     1
174
     0
175
     0
176
     0
177
     0
178
     0
270
     2
271
     0
272
     2
273
     2
274
     2
340
87
275
     0
280
     0
281
     0
282
     0
283
     1
284
    12
285
     0
286
     0
287
     3
288
     0
  0
DIMSTYLE
105
C7
102
{ACAD_REACTORS
330
C6
102
}
330
A
100
AcDbSymbolTableRecord
100
AcDbDimStyleTableRecord
  2
SLDDIMSTYLE1
 70
     0
  3

  4

  5

  6

  7

 40
1.0
 41
2.5
 42
0.0625
 43
0.38
 44
0.0
 45
0.000000001
 46
0.0
 47
0.0
 48
0.0
140
5.8208333333
141
0.09
142
0.0
143
25.4
144
1.0
145
0.0
146
1.0
147
1.4552083333
 71
     0
 72
     0
 73
     0
 74
     0
 75
     0
 76
     0
 77
     1
 78
    12
170
     0
171
     2
172
     1
173
     1
174
     0
175
     0
176
     0
177
     0
178
     0
270
     2
271
     0
272
     2
273
     2
274
     2
340
87
275
     0
280
     0
281
     0
282
     0
283
     1
284
    12
285
     0
286
     0
288
     0
  0
ENDTAB
  0
TABLE
  2
BLOCK_RECORD
  5
1
330
0
100
AcDbSymbolTable
 70
     6
  0
BLOCK_RECORD
  5
1F
330
1
100
AcDbSymbolTableRecord
100
AcDbBlockTableRecord
  2
*MODEL_SPACE
  0
BLOCK_RECORD
  5
1B
330
1
100
AcDbSymbolTableRecord
100
AcDbBlockTableRecord
  2
*PAPER_SPACE
  0
BLOCK_RECORD
  5
23
330
1
100
AcDbSymbolTableRecord
100
AcDbBlockTableRecord
  2
*PAPER_SPACE0
  0
BLOCK_RECORD
  5
89
330
1
100
AcDbSymbolTableRecord
100
AcDbBlockTableRecord
  2
*D1
  0
BLOCK_RECORD
  5
AA
330
1
100
AcDbSymbolTableRecord
100
AcDbBlockTableRecord
  2
*D2
  0
BLOCK_RECORD
  5
B4
330
1
100
AcDbSymbolTableRecord
100
AcDbBlockTableRecord
  2
*D3
  0
BLOCK_RECORD
  5
BD
330
1
100
AcDbSymbolTableRecord
100
AcDbBlockTableRecord
  2
*D4
  0
BLOCK_RECORD
  5
C8
330
1
100
AcDbSymbolTableRecord
100
AcDbBlockTableRecord
  2
*D5
  0
ENDTAB
  0
ENDSEC
  0
SECTION
  2
BLOCKS
  0
BLOCK
  5
20
330
1F
100
AcDbEntity
  8
0
100
AcDbBlockBegin
  2
*MODEL_SPACE
 70
     0
 10
0.0
 20
0.0
 30
0.0
  3
*MODEL_SPACE
  1

  0
ENDBLK
  5
21
330
1F
100
AcDbEntity
  8
0
100
AcDbBlockEnd
  0
BLOCK
  5
1C
330
1B
100
AcDbEntity
 67
     1
  8
0
100
AcDbBlockBegin
  2
*PAPER_SPACE
 70
     0
 10
0.0
 20
0.0
 30
0.0
  3
*PAPER_SPACE
  1

  0
ENDBLK
  5
1D
330
1B
100
AcDbEntity
 67
     1
  8
0
100
AcDbBlockEnd
  0
BLOCK
  5
24
330
23
100
AcDbEntity
  8
0
100
AcDbBlockBegin
  2
*PAPER_SPACE0
 70
     0
 10
0.0
 20
0.0
 30
0.0
  3
*PAPER_SPACE0
  1

  0
ENDBLK
  5
25
330
23
100
AcDbEntity
  8
0
100
AcDbBlockEnd
  0
BLOCK
  5
8A
330
89
100
AcDbEntity
  8
0
100
AcDbBlockBegin
  2
*D1
 70
     1
 10
0.0
 20
0.0
 30
0.0
  3
*D1
  1

  0
SOLID
  5
8C
330
89
100
AcDbEntity
  8
0
  6
SLD-PLNÁ
 62
     9
100
AcDbTrace
 10
113.3614518159
 20
125.1812983635
 30
0.0
 11
113.8479577036
 21
124.3907057335
 31
0.0
 12
113.3442103023
 22
126.109429505
 32
0.0
 13
113.3442103023
 23
126.109429505
 33
0.0
  0
SOLID
  5
8D
330
89
100
AcDbEntity
  8
0
  6
SLD-PLNÁ
 62
     9
100
AcDbTrace
 10
153.670488961
 20
136.9956300486
 30
0.0
 11
153.1839830733
 21
137.7862226786
 31
0.0
 12
153.6877304746
 22
136.0674989072
 32
0.0
 13
153.6877304746
 23
136.0674989072
 33
0.0
  0
LINE
  5
8E
330
89
100
AcDbEntity
  8
0
  6
SLD-PLNÁ
 62
     9
100
AcDbLine
 10
113.3614518159
 20
125.1812983635
 30
0.0
 11
153.670488961
 21
136.9956300486
 31
0.0
  0
MTEXT
  5
8F
330
89
100
AcDbEntity
  8
0
  6
SLD-PLNÁ
 62
     9
100
AcDbMText
 10
128.6435594277
 20
137.4794882041
 30
-1055.4842188635
 40
5.8208333333
 41
0.0
 71
     1
 72
     1
  1
d
  7
SLDTEXTSTYLE0
 11
0.9596310248528895
 21
0.2812619706604378
 31
0.0
  0
ENDBLK
  5
8B
330
89
100
AcDbEntity
  8
0
100
AcDbBlockEnd
  0
BLOCK
  5
AB
330
AA
100
AcDbEntity
  8
0
100
AcDbBlockBegin
  2
*D2
 70
     1
 10
0.0
 20
0.0
 30
0.0
  3
*D2
  1

  0
SOLID
  5
AD
330
AA
100
AcDbEntity
  8
0
  6
SLD-PLNÁ
 62
     9
100
AcDbTrace
 10
16.8588935722
 20
85.2583772392
 30
0.0
 11
17.7544063927
 21
91.0792105725
 31
0.0
 12
15.9633807517
 22
91.0792105725
 32
0.0
 13
15.9633807517
 23
91.0792105725
 33
0.0
  0
SOLID
  5
AE
330
AA
100
AcDbEntity
  8
0
  6
SLD-PLNÁ
 62
     9
100
AcDbTrace
 10
16.8588935722
 20
238.2583772392
 30
0.0
 11
15.9633807517
 21
232.4375439059
 31
0.0
 12
17.7544063927
 22
232.4375439059
 32
0.0
 13
17.7544063927
 23
232.4375439059
 33
0.0
  0
LINE
  5
AF
330
AA
100
AcDbEntity
  8
0
  6
SLD-PLNÁ
 62
     9
100
AcDbLine
 10
32.8588935722
 20
85.2583772392
 30
0.0
 11
15.8588935722
 21
85.2583772392
 31
0.0
  0
LINE
  5
B0
330
AA
100
AcDbEntity
  8
0
  6
SLD-PLNÁ
 62
     9
100
AcDbLine
 10
55.8588935722
 20
238.2583772392
 30
0.0
 11
15.8588935722
 21
238.2583772392
 31
0.0
  0
LINE
  5
B1
330
AA
100
AcDbEntity
  8
0
  6
SLD-PLNÁ
 62
     9
100
AcDbLine
 10
16.8588935722
 20
85.2583772392
 30
0.0
 11
16.8588935722
 21
238.2583772392
 31
0.0
  0
MTEXT
  5
B2
330
AA
100
AcDbEntity
  8
0
  6
SLD-PLNÁ
 62
     9
100
AcDbMText
 10
9.3554447543
 20
157.2870772167
 30
0.1
 40
5.8208333333
 41
0.0
 71
     1
 72
     1
  1
a
  7
SLDTEXTSTYLE0
 11
6.123233995736766E-17
 21
1.0
 31
0.0
  0
ENDBLK
  5
AC
330
AA
100
AcDbEntity
  8
0
100
AcDbBlockEnd
  0
BLOCK
  5
B5
330
B4
100
AcDbEntity
  8
0
100
AcDbBlockBegin
  2
*D3
 70
     1
 10
0.0
 20
0.0
 30
0.0
  3
*D3
  1

  0
SOLID
  5
B7
330
B4
100
AcDbEntity
  8
0
  6
SLD-PLNÁ
 62
     9
100
AcDbTrace
 10
52.8588935722
 20
215.6609491093
 30
0.0
 11
58.6797269055
 21
214.7654362888
 31
0.0
 12
58.6797269055
 22
216.5564619298
 32
0.0
 13
58.6797269055
 23
216.5564619298
 33
0.0
  0
SOLID
  5
B8
330
B4
100
AcDbEntity
  8
0
  6
SLD-PLNÁ
 62
     9
100
AcDbTrace
 10
104.3588935722
 20
215.6609491093
 30
0.0
 11
98.5380602388
 21
216.5564619298
 31
0.0
 12
98.5380602388
 22
214.7654362888
 32
0.0
 13
98.5380602388
 23
214.7654362888
 33
0.0
  0
LINE
  5
B9
330
B4
100
AcDbEntity
  8
0
  6
SLD-PLNÁ
 62
     9
100
AcDbLine
 10
104.3588935722
 20
238.2583772392
 30
0.0
 11
104.3588935722
 21
214.6609491093
 31
0.0
  0
LINE
  5
BA
330
B4
100
AcDbEntity
  8
0
  6
SLD-PLNÁ
 62
     9
100
AcDbLine
 10
52.8588935722
 20
215.6609491093
 30
0.0
 11
104.3588935722
 21
215.6609491093
 31
0.0
  0
MTEXT
  5
BB
330
B4
100
AcDbEntity
  8
0
  6
SLD-PLNÁ
 62
     9
100
AcDbMText
 10
75.3234761799
 20
223.1643979271
 30
0.1
 40
5.8208333333
 41
0.0
 71
     1
 72
     1
  1
b
  7
SLDTEXTSTYLE0
  0
ENDBLK
  5
B6
330
B4
100
AcDbEntity
  8
0
100
AcDbBlockEnd
  0
BLOCK
  5
BE
330
BD
100
AcDbEntity
  8
0
100
AcDbBlockBegin
  2
*D4
 70
     1
 10
0.0
 20
0.0
 30
0.0
  3
*D4
  1

  0
SOLID
  5
C0
330
BD
100
AcDbEntity
  8
0
  6
SLD-PLNÁ
 62
     9
100
AcDbTrace
 10
120.3588935722
 20
286.7583772392
 30
0.0
 11
119.4633807517
 21
280.9375439059
 31
0.0
 12
121.2544063927
 22
280.9375439059
 32
0.0
 13
121.2544063927
 23
280.9375439059
 33
0.0
  0
SOLID
  5
C1
330
BD
100
AcDbEntity
  8
0
  6
SLD-PLNÁ
 62
     9
100
AcDbTrace
 10
120.3588935722
 20
238.2583772392
 30
0.0
 11
121.2544063927
 21
244.0792105725
 31
0.0
 12
119.4633807517
 22
244.0792105725
 32
0.0
 13
119.4633807517
 23
244.0792105725
 33
0.0
  0
LINE
  5
C2
330
BD
100
AcDbEntity
  8
0
  6
SLD-PLNÁ
 62
     9
100
AcDbLine
 10
104.3588935722
 20
286.7583772392
 30
0.0
 11
121.3588935722
 21
286.7583772392
 31
0.0
  0
LINE
  5
C3
330
BD
100
AcDbEntity
  8
0
  6
SLD-PLNÁ
 62
     9
100
AcDbLine
 10
102.8588935722
 20
238.2583772392
 30
0.0
 11
121.3588935722
 21
238.2583772392
 31
0.0
  0
LINE
  5
C4
330
BD
100
AcDbEntity
  8
0
  6
SLD-PLNÁ
 62
     9
100
AcDbLine
 10
120.3588935722
 20
286.7583772392
 30
0.0
 11
120.3588935722
 21
238.2583772392
 31
0.0
  0
MTEXT
  5
C5
330
BD
100
AcDbEntity
  8
0
  6
SLD-PLNÁ
 62
     9
100
AcDbMText
 10
112.8554447543
 20
259.6350283801
 30
0.1
 40
5.8208333333
 41
0.0
 71
     1
 72
     1
  1
c
  7
SLDTEXTSTYLE0
 11
-7.044195017643634E-15
 21
1.0
 31
0.0
  0
ENDBLK
  5
BF
330
BD
100
AcDbEntity
  8
0
100
AcDbBlockEnd
  0
BLOCK
  5
C9
330
C8
100
AcDbEntity
  8
0
100
AcDbBlockBegin
  2
*D5
 70
     1
 10
0.0
 20
0.0
 30
0.0
  3
*D5
  1

  0
SOLID
  5
CB
330
C8
100
AcDbEntity
  8
0
  6
SLD-PLNÁ
 62
     9
100
AcDbTrace
 10
32.8588935722
 20
113.7701879564
 30
0.0
 11
27.0380602388
 21
114.6657007769
 31
0.0
 12
27.0380602388
 22
112.8746751359
 32
0.0
 13
27.0380602388
 23
112.8746751359
 33
0.0
  0
SOLID
  5
CC
330
C8
100
AcDbEntity
  8
0
  6
SLD-PLNÁ
 62
     9
100
AcDbTrace
 10
52.8588935722
 20
113.7701879564
 30
0.0
 11
58.6797269055
 21
112.8746751359
 31
0.0
 12
58.6797269055
 22
114.6657007769
 32
0.0
 13
58.6797269055
 23
114.6657007769
 33
0.0
  0
LINE
  5
CD
330
C8
100
AcDbEntity
  8
0
  6
SLD-PLNÁ
 62
     9
100
AcDbLine
 10
32.8588935722
 20
86.7583772392
 30
0.0
 11
32.8588935722
 21
114.7701879564
 31
0.0
  0
LINE
  5
CE
330
C8
100
AcDbEntity
  8
0
  6
SLD-PLNÁ
 62
     9
100
AcDbLine
 10
32.8588935722
 20
113.7701879564
 30
0.0
 11
21.6649833158
 21
113.7701879564
 31
0.0
  0
LINE
  5
CF
330
C8
100
AcDbEntity
  8
0
  6
SLD-PLNÁ
 62
     9
100
AcDbLine
 10
32.8588935722
 20
113.7701879564
 30
0.0
 11
52.8588935722
 21
113.7701879564
 31
0.0
  0
LINE
  5
D0
330
C8
100
AcDbEntity
  8
0
  6
SLD-PLNÁ
 62
     9
100
AcDbLine
 10
52.8588935722
 20
113.7701879564
 30
0.0
 11
64.0528038286
 21
113.7701879564
 31
0.0
  0
MTEXT
  5
D1
330
C8
100
AcDbEntity
  8
0
  6
SLD-PLNÁ
 62
     9
100
AcDbMText
 10
36.8291717919
 20
121.2736367742
 30
0.1
 40
5.8208333333
 41
0.0
 71
     1
 72
     1
  1
20
  7
SLDTEXTSTYLE0
  0
ENDBLK
  5
CA
330
C8
100
AcDbEntity
  8
0
100
AcDbBlockEnd
  0
ENDSEC
  0
SECTION
  2
ENTITIES
  0
LINE
  5
4A
330
1F
100
AcDbEntity
  8
0
  6
SLD-PLNÁ
 62
     7
100
AcDbLine
 10
161.239655008
 20
223.8611644144
 30
0.0
 11
201.548692153
 21
235.6754960994
 31
0.0
  0
LINE
  5
4B
330
1F
100
AcDbEntity
  8
0
  6
SLD-PLNÁ
 62
     7
100
AcDbLine
 10
153.350288228
 20
236.5909121951
 30
0.0
 11
113.041251083
 21
224.77658051
 31
0.0
  0
LINE
  5
4C
330
1F
100
AcDbEntity
  8
0
  6
SLD-PLNÁ
 62
     7
100
AcDbLine
 10
116.0590994582
 20
72.0344659374
 30
0.0
 11
156.3681366032
 21
83.8487976225
 31
0.0
  0
LINE
  5
4D
330
1F
100
AcDbEntity
  8
0
  6
SLD-PLNÁ
 62
     7
100
AcDbLine
 10
109.7007547459
 20
71.9988293873
 30
0.0
 11
112.9491195873
 21
72.9509052092
 31
0.0
  0
ARC
  5
4E
330
1F
100
AcDbEntity
  8
0
  6
SLD-PLNÁ
 62
     7
100
AcDbCircle
 10
115.2153289756
 20
74.9115735782
 30
0.0
 40
2.99754978785733
100
AcDbArc
 50
180.4578573593
 51
0.5261123523
  0
LINE
  5
4F
330
1F
100
AcDbEntity
  8
0
  6
SLD-PLNÁ
 62
     7
100
AcDbLine
 10
110.8875983701
 20
221.8719497425
 30
0.0
 11
112.2178748959
 21
74.8876200578
 31
0.0
  0
ARC
  5
50
330
1F
100
AcDbEntity
  8
0
  6
SLD-PLNÁ
 62
     7
100
AcDbCircle
 10
113.8845227141
 20
221.9004335751
 30
0.0
 40
2.997059701181346
100
AcDbArc
 50
90.5091827813
 51
180.5445430255
  0
LINE
  5
51
330
1F
100
AcDbEntity
  8
0
  6
SLD-PLNÁ
 62
     7
100
AcDbLine
 10
160.8177626787
 20
225.3006178011
 30
0.0
 11
113.8578884468
 21
224.8973749272
 31
0.0
  0
LINE
  5
52
330
1F
100
AcDbEntity
  8
0
  6
SLD-PLNÁ
 62
     7
100
AcDbLine
 10
160.3788619069
 20
273.7954491328
 30
0.0
 11
160.8177626787
 21
225.3006178011
 31
0.0
  0
LINE
  5
53
330
1F
100
AcDbEntity
  8
0
  6
SLD-PLNÁ
 62
     7
100
AcDbLine
 10
160.3788619069
 20
273.7954491328
 30
0.0
 11
161.8775806415
 21
273.8083185806
 31
0.0
  0
LINE
  5
54
330
1F
100
AcDbEntity
  8
0
  6
SLD-PLNÁ
 62
     7
100
AcDbLine
 10
161.8775806415
 20
273.8083185806
 30
0.0
 11
162.3164814133
 21
225.3134872489
 31
0.0
  0
ARC
  5
55
330
1F
100
AcDbEntity
  8
0
  6
SLD-PLNÁ
 62
     7
100
AcDbCircle
 10
160.8180168915
 20
225.2992402592
 30
0.0
 40
1.498532248497238
100
AcDbArc
 50
270.5092966285
 51
0.544736144
  0
LINE
  5
56
330
1F
100
AcDbEntity
  8
0
  6
SLD-PLNÁ
 62
     7
100
AcDbLine
 10
160.8313370239
 20
223.8007672118
 30
0.0
 11
113.871462792
 21
223.3975243379
 31
0.0
  0
ARC
  5
57
330
1F
100
AcDbEntity
  8
0
  6
SLD-PLNÁ
 62
     7
100
AcDbCircle
 10
113.884760633
 20
221.8990724911
 30
0.0
 40
1.498510850750438
100
AcDbArc
 50
90.5084515512
 51
180.5449850836
  0
LINE
  5
58
330
1F
100
AcDbEntity
  8
0
  6
SLD-PLNÁ
 62
     7
100
AcDbLine
 10
112.38631757
 20
221.8848191943
 30
0.0
 11
113.7165940957
 21
74.9004895096
 31
0.0
  0
ARC
  5
59
330
1F
100
AcDbEntity
  8
0
  6
SLD-PLNÁ
 62
     7
100
AcDbCircle
 10
115.2153213116
 20
74.9124525484
 30
0.0
 40
1.498774960325183
100
AcDbArc
 50
180.4573327738
 51
0.5266369377
  0
LINE
  5
5A
330
1F
100
AcDbEntity
  8
0
  6
SLD-PLNÁ
 62
     7
100
AcDbLine
 10
116.7140329607
 20
74.9262284172
 30
0.0
 11
116.5601914492
 21
91.9244171414
 31
0.0
  0
LINE
  5
5B
330
1F
100
AcDbEntity
  8
0
  6
SLD-PLNÁ
 62
     7
100
AcDbLine
 10
116.5601914492
 20
91.9244171414
 30
0.0
 11
118.0589108816
 21
91.9372865952
 31
0.0
  0
LINE
  5
5C
330
1F
100
AcDbEntity
  8
0
  6
SLD-PLNÁ
 62
     7
100
AcDbLine
 10
118.2127523931
 20
74.939097871
 30
0.0
 11
118.0589108816
 21
91.9372865952
 31
0.0
  0
LINE
  5
5D
330
1F
100
AcDbEntity
  8
0
  6
SLD-PLNÁ
 62
     7
100
AcDbLine
 10
161.8775806415
 20
273.8083185806
 30
0.0
 11
202.1866177865
 21
285.6226502656
 31
0.0
  0
LINE
  5
5E
330
1F
100
AcDbEntity
  8
0
  6
SLD-PLNÁ
 62
     7
100
AcDbLine
 10
160.3788619069
 20
273.7954491328
 30
0.0
 11
200.687899052
 21
285.6097808178
 31
0.0
  0
LINE
  5
5F
330
1F
100
AcDbEntity
  8
0
  6
SLD-PLNÁ
 62
     7
100
AcDbLine
 10
200.687899052
 20
285.6097808178
 30
0.0
 11
202.1866177865
 21
285.6226502656
 31
0.0
  0
LINE
  5
60
330
1F
100
AcDbEntity
  8
0
  6
SLD-PLNÁ
 62
     7
100
AcDbLine
 10
202.1866177865
 20
285.6226502656
 30
0.0
 11
202.6255185583
 21
237.1278189339
 31
0.0
  0
ARC
  5
61
330
1F
100
AcDbEntity
  8
0
  6
SLD-PLNÁ
 62
     7
100
AcDbCircle
 10
201.1268246975
 20
237.1136586948
 30
0.0
 40
1.498760755027297
100
AcDbArc
 50
286.3484073292
 51
0.5413365727
  0
LINE
  5
62
330
1F
100
AcDbEntity
  8
0
  6
SLD-PLNÁ
 62
     7
100
AcDbLine
 10
160.7139790295
 20
236.7679259418
 30
0.0
 11
154.1669255919
 21
236.7117066122
 31
0.0
  0
POLYLINE
  5
63
330
1F
100
AcDbEntity
  8
0
  6
SLD-PLNÁ
 62
     7
100
AcDb2dPolyline
 66
     1
 10
0.0
 20
0.0
 30
0.0
  0
VERTEX
  5
D2
330
63
100
AcDbEntity
  8
0
  6
SLD-PLNÁ
 62
     7
100
AcDbVertex
100
AcDb2dVertex
 10
154.1669255919
 20
236.7117066122
 30
0.0
  0
VERTEX
  5
D3
330
63
100
AcDbEntity
  8
0
  6
SLD-PLNÁ
 62
     7
100
AcDbVertex
100
AcDb2dVertex
 10
153.5826759313
 20
236.6490387529
 30
0.0
  0
VERTEX
  5
D4
330
63
100
AcDbEntity
  8
0
  6
SLD-PLNÁ
 62
     7
100
AcDbVertex
100
AcDb2dVertex
 10
153.350288228
 20
236.5909121951
 30
0.0
  0
SEQEND
  5
D5
330
63
100
AcDbEntity
  8
0
  6
SLD-PLNÁ
 62
     7
  0
LINE
  5
64
330
1F
100
AcDbEntity
  8
0
  6
SLD-PLNÁ
 62
     7
100
AcDbLine
 10
152.7855649663
 20
223.7316794128
 30
0.0
 11
153.8794874803
 21
102.8624733969
 31
0.0
  0
POLYLINE
  5
65
330
1F
100
AcDbEntity
  8
0
  6
SLD-PLNÁ
 62
     7
100
AcDb2dPolyline
 66
     1
 10
0.0
 20
0.0
 30
0.0
  0
VERTEX
  5
D6
330
65
100
AcDbEntity
  8
0
  6
SLD-PLNÁ
 62
     7
100
AcDbVertex
100
AcDb2dVertex
 10
113.6445865625
 20
203.2052470292
 30
0.0
  0
VERTEX
  5
D7
330
65
100
AcDbEntity
  8
0
  6
SLD-PLNÁ
 62
     7
100
AcDbVertex
100
AcDb2dVertex
 10
113.6318504019
 20
203.9496341817
 30
0.0
  0
VERTEX
  5
D8
330
65
100
AcDbEntity
  8
0
  6
SLD-PLNÁ
 62
     7
100
AcDbVertex
100
AcDb2dVertex
 10
113.6090865223
 20
204.5772015433
 30
0.0
  0
VERTEX
  5
D9
330
65
100
AcDbEntity
  8
0
  6
SLD-PLNÁ
 62
     7
100
AcDbVertex
100
AcDb2dVertex
 10
113.5797605699
 20
204.992398558
 30
0.0
  0
VERTEX
  5
DA
330
65
100
AcDbEntity
  8
0
  6
SLD-PLNÁ
 62
     7
100
AcDbVertex
100
AcDb2dVertex
 10
113.548337474
 20
205.1319969752
 30
0.0
  0
VERTEX
  5
DB
330
65
100
AcDbEntity
  8
0
  6
SLD-PLNÁ
 62
     7
100
AcDbVertex
100
AcDb2dVertex
 10
113.5196007462
 20
204.9747660825
 30
0.0
  0
VERTEX
  5
DC
330
65
100
AcDbEntity
  8
0
  6
SLD-PLNÁ
 62
     7
100
AcDbVertex
100
AcDb2dVertex
 10
113.4979256084
 20
204.5446209608
 30
0.0
  0
VERTEX
  5
DD
330
65
100
AcDbEntity
  8
0
  6
SLD-PLNÁ
 62
     7
100
AcDbVertex
100
AcDb2dVertex
 10
113.4866116776
 20
203.9070656019
 30
0.0
  0
VERTEX
  5
DE
330
65
100
AcDbEntity
  8
0
  6
SLD-PLNÁ
 62
     7
100
AcDbVertex
100
AcDb2dVertex
 10
113.4873813594
 20
203.1591711479
 30
0.0
  0
VERTEX
  5
DF
330
65
100
AcDbEntity
  8
0
  6
SLD-PLNÁ
 62
     7
100
AcDbVertex
100
AcDb2dVertex
 10
113.5001176548
 20
202.4147690959
 30
0.0
  0
VERTEX
  5
E0
330
65
100
AcDbEntity
  8
0
  6
SLD-PLNÁ
 62
     7
100
AcDbVertex
100
AcDb2dVertex
 10
113.5228815345
 20
201.7872017343
 30
0.0
  0
VERTEX
  5
E1
330
65
100
AcDbEntity
  8
0
  6
SLD-PLNÁ
 62
     7
100
AcDbVertex
100
AcDb2dVertex
 10
113.552207277
 20
201.3720195971
 30
0.0
  0
VERTEX
  5
E2
330
65
100
AcDbEntity
  8
0
  6
SLD-PLNÁ
 62
     7
100
AcDbVertex
100
AcDb2dVertex
 10
113.5836305828
 20
201.2324063023
 30
0.0
  0
VERTEX
  5
E3
330
65
100
AcDbEntity
  8
0
  6
SLD-PLNÁ
 62
     7
100
AcDbVertex
100
AcDb2dVertex
 10
113.6123671007
 20
201.3896520727
 30
0.0
  0
VERTEX
  5
E4
330
65
100
AcDbEntity
  8
0
  6
SLD-PLNÁ
 62
     7
100
AcDbVertex
100
AcDb2dVertex
 10
113.6340424484
 20
201.8197823167
 30
0.0
  0
VERTEX
  5
E5
330
65
100
AcDbEntity
  8
0
  6
SLD-PLNÁ
 62
     7
100
AcDbVertex
100
AcDb2dVertex
 10
113.6453563792
 20
202.4573376757
 30
0.0
  0
VERTEX
  5
E6
330
65
100
AcDbEntity
  8
0
  6
SLD-PLNÁ
 62
     7
100
AcDbVertex
100
AcDb2dVertex
 10
113.6445865625
 20
203.2052470292
 30
0.0
  0
SEQEND
  5
E7
330
65
100
AcDbEntity
  8
0
  6
SLD-PLNÁ
 62
     7
  0
POLYLINE
  5
66
330
1F
100
AcDbEntity
  8
0
  6
SLD-PLNÁ
 62
     7
100
AcDb2dPolyline
 66
     1
 10
0.0
 20
0.0
 30
0.0
  0
VERTEX
  5
E8
330
66
100
AcDbEntity
  8
0
  6
SLD-PLNÁ
 62
     7
100
AcDbVertex
100
AcDb2dVertex
 10
114.1196854084
 20
150.7108339921
 30
0.0
  0
VERTEX
  5
E9
330
66
100
AcDbEntity
  8
0
  6
SLD-PLNÁ
 62
     7
100
AcDbVertex
100
AcDb2dVertex
 10
114.106949113
 20
151.4552360441
 30
0.0
  0
VERTEX
  5
EA
330
66
100
AcDbEntity
  8
0
  6
SLD-PLNÁ
 62
     7
100
AcDbVertex
100
AcDb2dVertex
 10
114.0841852334
 20
152.0828034057
 30
0.0
  0
VERTEX
  5
EB
330
66
100
AcDbEntity
  8
0
  6
SLD-PLNÁ
 62
     7
100
AcDbVertex
100
AcDb2dVertex
 10
114.0548594158
 20
152.4979855209
 30
0.0
  0
VERTEX
  5
EC
330
66
100
AcDbEntity
  8
0
  6
SLD-PLNÁ
 62
     7
100
AcDbVertex
100
AcDb2dVertex
 10
114.0234362525
 20
152.6375913879
 30
0.0
  0
VERTEX
  5
ED
330
66
100
AcDbEntity
  8
0
  6
SLD-PLNÁ
 62
     7
100
AcDbVertex
100
AcDb2dVertex
 10
113.9946995921
 20
152.4803530454
 30
0.0
  0
VERTEX
  5
EE
330
66
100
AcDbEntity
  8
0
  6
SLD-PLNÁ
 62
     7
100
AcDbVertex
100
AcDb2dVertex
 10
113.9730243194
 20
152.0502228233
 30
0.0
  0
VERTEX
  5
EF
330
66
100
AcDbEntity
  8
0
  6
SLD-PLNÁ
 62
     7
100
AcDbVertex
100
AcDb2dVertex
 10
113.9617103887
 20
151.4126674643
 30
0.0
  0
VERTEX
  5
F0
330
66
100
AcDbEntity
  8
0
  6
SLD-PLNÁ
 62
     7
100
AcDbVertex
100
AcDb2dVertex
 10
113.9624802053
 20
150.6647581108
 30
0.0
  0
VERTEX
  5
F1
330
66
100
AcDbEntity
  8
0
  6
SLD-PLNÁ
 62
     7
100
AcDbVertex
100
AcDb2dVertex
 10
113.9752164333
 20
149.9203635086
 30
0.0
  0
VERTEX
  5
F2
330
66
100
AcDbEntity
  8
0
  6
SLD-PLNÁ
 62
     7
100
AcDbVertex
100
AcDb2dVertex
 10
113.997980313
 20
149.292796147
 30
0.0
  0
VERTEX
  5
F3
330
66
100
AcDbEntity
  8
0
  6
SLD-PLNÁ
 62
     7
100
AcDbVertex
100
AcDb2dVertex
 10
114.0273061229
 20
148.87760656
 30
0.0
  0
VERTEX
  5
F4
330
66
100
AcDbEntity
  8
0
  6
SLD-PLNÁ
 62
     7
100
AcDbVertex
100
AcDb2dVertex
 10
114.0587292938
 20
148.7380081648
 30
0.0
  0
VERTEX
  5
F5
330
66
100
AcDbEntity
  8
0
  6
SLD-PLNÁ
 62
     7
100
AcDbVertex
100
AcDb2dVertex
 10
114.0874659466
 20
148.8952390355
 30
0.0
  0
VERTEX
  5
F6
330
66
100
AcDbEntity
  8
0
  6
SLD-PLNÁ
 62
     7
100
AcDbVertex
100
AcDb2dVertex
 10
114.1091412269
 20
149.3253767294
 30
0.0
  0
VERTEX
  5
F7
330
66
100
AcDbEntity
  8
0
  6
SLD-PLNÁ
 62
     7
100
AcDbVertex
100
AcDb2dVertex
 10
114.1204551577
 20
149.9629320884
 30
0.0
  0
VERTEX
  5
F8
330
66
100
AcDbEntity
  8
0
  6
SLD-PLNÁ
 62
     7
100
AcDbVertex
100
AcDb2dVertex
 10
114.1196854084
 20
150.7108339921
 30
0.0
  0
SEQEND
  5
F9
330
66
100
AcDbEntity
  8
0
  6
SLD-PLNÁ
 62
     7
  0
POLYLINE
  5
67
330
1F
100
AcDbEntity
  8
0
  6
SLD-PLNÁ
 62
     7
100
AcDb2dPolyline
 66
     1
 10
0.0
 20
0.0
 30
0.0
  0
VERTEX
  5
FA
330
67
100
AcDbEntity
  8
0
  6
SLD-PLNÁ
 62
     7
100
AcDbVertex
100
AcDb2dVertex
 10
114.5947841363
 20
98.2164339921
 30
0.0
  0
VERTEX
  5
FB
330
67
100
AcDbEntity
  8
0
  6
SLD-PLNÁ
 62
     7
100
AcDbVertex
100
AcDb2dVertex
 10
114.5820478578
 20
98.9608341817
 30
0.0
  0
VERTEX
  5
FC
330
67
100
AcDbEntity
  8
0
  6
SLD-PLNÁ
 62
     7
100
AcDbVertex
100
AcDb2dVertex
 10
114.5592840118
 20
99.5883978184
 30
0.0
  0
VERTEX
  5
FD
330
67
100
AcDbEntity
  8
0
  6
SLD-PLNÁ
 62
     7
100
AcDbVertex
100
AcDb2dVertex
 10
114.5299581437
 20
100.0035855209
 30
0.0
  0
VERTEX
  5
FE
330
67
100
AcDbEntity
  8
0
  6
SLD-PLNÁ
 62
     7
100
AcDbVertex
100
AcDb2dVertex
 10
114.4985350141
 20
100.143187663
 30
0.0
  0
VERTEX
  5
FF
330
67
100
AcDbEntity
  8
0
  6
SLD-PLNÁ
 62
     7
100
AcDbVertex
100
AcDb2dVertex
 10
114.46979832
 20
99.9859530454
 30
0.0
  0
VERTEX
  5
100
330
67
100
AcDbEntity
  8
0
  6
SLD-PLNÁ
 62
     7
100
AcDbVertex
100
AcDb2dVertex
 10
114.4481230979
 20
99.5558172359
 30
0.0
  0
VERTEX
  5
101
330
67
100
AcDbEntity
  8
0
  6
SLD-PLNÁ
 62
     7
100
AcDbVertex
100
AcDb2dVertex
 10
114.4368091334
 20
98.9182656019
 30
0.0
  0
VERTEX
  5
102
330
67
100
AcDbEntity
  8
0
  6
SLD-PLNÁ
 62
     7
100
AcDbVertex
100
AcDb2dVertex
 10
114.4375789333
 20
98.1703581108
 30
0.0
  0
VERTEX
  5
103
330
67
100
AcDbEntity
  8
0
  6
SLD-PLNÁ
 62
     7
100
AcDbVertex
100
AcDb2dVertex
 10
114.4503152118
 20
97.4259579213
 30
0.0
  0
VERTEX
  5
104
330
67
100
AcDbEntity
  8
0
  6
SLD-PLNÁ
 62
     7
100
AcDbVertex
100
AcDb2dVertex
 10
114.4730790577
 20
96.7983942845
 30
0.0
  0
VERTEX
  5
105
330
67
100
AcDbEntity
  8
0
  6
SLD-PLNÁ
 62
     7
100
AcDbVertex
100
AcDb2dVertex
 10
114.5024048508
 20
96.38320656
 30
0.0
  0
VERTEX
  5
106
330
67
100
AcDbEntity
  8
0
  6
SLD-PLNÁ
 62
     7
100
AcDbVertex
100
AcDb2dVertex
 10
114.5338280554
 20
96.2436044399
 30
0.0
  0
VERTEX
  5
107
330
67
100
AcDbEntity
  8
0
  6
SLD-PLNÁ
 62
     7
100
AcDbVertex
100
AcDb2dVertex
 10
114.5625646745
 20
96.4008390355
 30
0.0
  0
VERTEX
  5
108
330
67
100
AcDbEntity
  8
0
  6
SLD-PLNÁ
 62
     7
100
AcDbVertex
100
AcDb2dVertex
 10
114.5842399716
 20
96.830974867
 30
0.0
  0
VERTEX
  5
109
330
67
100
AcDbEntity
  8
0
  6
SLD-PLNÁ
 62
     7
100
AcDbVertex
100
AcDb2dVertex
 10
114.5955539361
 20
97.468526501
 30
0.0
  0
VERTEX
  5
10A
330
67
100
AcDbEntity
  8
0
  6
SLD-PLNÁ
 62
     7
100
AcDbVertex
100
AcDb2dVertex
 10
114.5947841363
 20
98.2164339921
 30
0.0
  0
SEQEND
  5
10B
330
67
100
AcDbEntity
  8
0
  6
SLD-PLNÁ
 62
     7
  0
POLYLINE
  5
68
330
1F
100
AcDbEntity
  8
0
  6
SLD-PLNÁ
 62
     7
100
AcDb2dPolyline
 66
     1
 10
0.0
 20
0.0
 30
0.0
  0
VERTEX
  5
10C
330
68
100
AcDbEntity
  8
0
  6
SLD-PLNÁ
 62
     7
100
AcDbVertex
100
AcDb2dVertex
 10
152.5428064254
 20
214.6060768174
 30
0.0
  0
VERTEX
  5
10D
330
68
100
AcDbEntity
  8
0
  6
SLD-PLNÁ
 62
     7
100
AcDbVertex
100
AcDb2dVertex
 10
152.5300710157
 20
215.3504641899
 30
0.0
  0
VERTEX
  5
10E
330
68
100
AcDbEntity
  8
0
  6
SLD-PLNÁ
 62
     7
100
AcDbVertex
100
AcDb2dVertex
 10
152.5073067606
 20
215.9780314415
 30
0.0
  0
VERTEX
  5
10F
330
68
100
AcDbEntity
  8
0
  6
SLD-PLNÁ
 62
     7
100
AcDbVertex
100
AcDb2dVertex
 10
152.477982535
 20
216.3932289624
 30
0.0
  0
VERTEX
  5
110
330
68
100
AcDbEntity
  8
0
  6
SLD-PLNÁ
 62
     7
100
AcDbVertex
100
AcDb2dVertex
 10
152.4465586884
 20
216.5328271595
 30
0.0
  0
VERTEX
  5
111
330
68
100
AcDbEntity
  8
0
  6
SLD-PLNÁ
 62
     7
100
AcDbVertex
100
AcDb2dVertex
 10
152.4178212848
 20
216.3755960687
 30
0.0
  0
VERTEX
  5
112
330
68
100
AcDbEntity
  8
0
  6
SLD-PLNÁ
 62
     7
100
AcDbVertex
100
AcDb2dVertex
 10
152.3961453962
 20
215.945450727
 30
0.0
  0
VERTEX
  5
113
330
68
100
AcDbEntity
  8
0
  6
SLD-PLNÁ
 62
     7
100
AcDbVertex
100
AcDb2dVertex
 10
152.3848334926
 20
215.3078959622
 30
0.0
  0
VERTEX
  5
114
330
68
100
AcDbEntity
  8
0
  6
SLD-PLNÁ
 62
     7
100
AcDbVertex
100
AcDb2dVertex
 10
152.3856015227
 20
214.5600010241
 30
0.0
  0
VERTEX
  5
115
330
68
100
AcDbEntity
  8
0
  6
SLD-PLNÁ
 62
     7
100
AcDbVertex
100
AcDb2dVertex
 10
152.3983394699
 20
213.8155994563
 30
0.0
  0
VERTEX
  5
116
330
68
100
AcDbEntity
  8
0
  6
SLD-PLNÁ
 62
     7
100
AcDbVertex
100
AcDb2dVertex
 10
152.4211013223
 20
213.1880315005
 30
0.0
  0
VERTEX
  5
117
330
68
100
AcDbEntity
  8
0
  6
SLD-PLNÁ
 62
     7
100
AcDbVertex
100
AcDb2dVertex
 10
152.4504278156
 20
212.7728495834
 30
0.0
  0
VERTEX
  5
118
330
68
100
AcDbEntity
  8
0
  6
SLD-PLNÁ
 62
     7
100
AcDbVertex
100
AcDb2dVertex
 10
152.4818517971
 20
212.6332364867
 30
0.0
  0
VERTEX
  5
119
330
68
100
AcDbEntity
  8
0
  6
SLD-PLNÁ
 62
     7
100
AcDbVertex
100
AcDb2dVertex
 10
152.5105890659
 20
212.790482477
 30
0.0
  0
VERTEX
  5
11A
330
68
100
AcDbEntity
  8
0
  6
SLD-PLNÁ
 62
     7
100
AcDbVertex
100
AcDb2dVertex
 10
152.5322626867
 20
213.220612215
 30
0.0
  0
VERTEX
  5
11B
330
68
100
AcDbEntity
  8
0
  6
SLD-PLNÁ
 62
     7
100
AcDbVertex
100
AcDb2dVertex
 10
152.5435769929
 20
213.8581676839
 30
0.0
  0
VERTEX
  5
11C
330
68
100
AcDbEntity
  8
0
  6
SLD-PLNÁ
 62
     7
100
AcDbVertex
100
AcDb2dVertex
 10
152.5428064254
 20
214.6060768174
 30
0.0
  0
SEQEND
  5
11D
330
68
100
AcDbEntity
  8
0
  6
SLD-PLNÁ
 62
     7
  0
POLYLINE
  5
69
330
1F
100
AcDbEntity
  8
0
  6
SLD-PLNÁ
 62
     7
100
AcDb2dPolyline
 66
     1
 10
0.0
 20
0.0
 30
0.0
  0
VERTEX
  5
11E
330
69
100
AcDbEntity
  8
0
  6
SLD-PLNÁ
 62
     7
100
AcDbVertex
100
AcDb2dVertex
 10
153.0179052713
 20
162.1116637803
 30
0.0
  0
VERTEX
  5
11F
330
69
100
AcDbEntity
  8
0
  6
SLD-PLNÁ
 62
     7
100
AcDbVertex
100
AcDb2dVertex
 10
153.0051697267
 20
162.8560660524
 30
0.0
  0
VERTEX
  5
120
330
69
100
AcDbEntity
  8
0
  6
SLD-PLNÁ
 62
     7
100
AcDbVertex
100
AcDb2dVertex
 10
152.9824054717
 20
163.4836333039
 30
0.0
  0
VERTEX
  5
121
330
69
100
AcDbEntity
  8
0
  6
SLD-PLNÁ
 62
     7
100
AcDbVertex
100
AcDb2dVertex
 10
152.9530813809
 20
163.8988159253
 30
0.0
  0
VERTEX
  5
122
330
69
100
AcDbEntity
  8
0
  6
SLD-PLNÁ
 62
     7
100
AcDbVertex
100
AcDb2dVertex
 10
152.9216574669
 20
164.0384215722
 30
0.0
  0
VERTEX
  5
123
330
69
100
AcDbEntity
  8
0
  6
SLD-PLNÁ
 62
     7
100
AcDbVertex
100
AcDb2dVertex
 10
152.8929201307
 20
163.8811830316
 30
0.0
  0
VERTEX
  5
124
330
69
100
AcDbEntity
  8
0
  6
SLD-PLNÁ
 62
     7
100
AcDbVertex
100
AcDb2dVertex
 10
152.8712441073
 20
163.4510525895
 30
0.0
  0
VERTEX
  5
125
330
69
100
AcDbEntity
  8
0
  6
SLD-PLNÁ
 62
     7
100
AcDbVertex
100
AcDb2dVertex
 10
152.8599322037
 20
162.8134978247
 30
0.0
  0
VERTEX
  5
126
330
69
100
AcDbEntity
  8
0
  6
SLD-PLNÁ
 62
     7
100
AcDbVertex
100
AcDb2dVertex
 10
152.8607003686
 20
162.065587987
 30
0.0
  0
VERTEX
  5
127
330
69
100
AcDbEntity
  8
0
  6
SLD-PLNÁ
 62
     7
100
AcDbVertex
100
AcDb2dVertex
 10
152.8734382483
 20
161.3211938689
 30
0.0
  0
VERTEX
  5
128
330
69
100
AcDbEntity
  8
0
  6
SLD-PLNÁ
 62
     7
100
AcDbVertex
100
AcDb2dVertex
 10
152.8962001008
 20
160.6936259132
 30
0.0
  0
VERTEX
  5
129
330
69
100
AcDbEntity
  8
0
  6
SLD-PLNÁ
 62
     7
100
AcDbVertex
100
AcDb2dVertex
 10
152.9255266615
 20
160.2784365462
 30
0.0
  0
VERTEX
  5
12A
330
69
100
AcDbEntity
  8
0
  6
SLD-PLNÁ
 62
     7
100
AcDbVertex
100
AcDb2dVertex
 10
152.9569505082
 20
160.1388383491
 30
0.0
  0
VERTEX
  5
12B
330
69
100
AcDbEntity
  8
0
  6
SLD-PLNÁ
 62
     7
100
AcDbVertex
100
AcDb2dVertex
 10
152.9856879118
 20
160.2960694399
 30
0.0
  0
VERTEX
  5
12C
330
69
100
AcDbEntity
  8
0
  6
SLD-PLNÁ
 62
     7
100
AcDbVertex
100
AcDb2dVertex
 10
153.0073614652
 20
160.7262066276
 30
0.0
  0
VERTEX
  5
12D
330
69
100
AcDbEntity
  8
0
  6
SLD-PLNÁ
 62
     7
100
AcDbVertex
100
AcDb2dVertex
 10
153.0186757714
 20
161.3637620966
 30
0.0
  0
VERTEX
  5
12E
330
69
100
AcDbEntity
  8
0
  6
SLD-PLNÁ
 62
     7
100
AcDbVertex
100
AcDb2dVertex
 10
153.0179052713
 20
162.1116637803
 30
0.0
  0
SEQEND
  5
12F
330
69
100
AcDbEntity
  8
0
  6
SLD-PLNÁ
 62
     7
  0
POLYLINE
  5
6A
330
1F
100
AcDbEntity
  8
0
  6
SLD-PLNÁ
 62
     7
100
AcDb2dPolyline
 66
     1
 10
0.0
 20
0.0
 30
0.0
  0
VERTEX
  5
130
330
6A
100
AcDbEntity
  8
0
  6
SLD-PLNÁ
 62
     7
100
AcDbVertex
100
AcDb2dVertex
 10
153.4930039992
 20
109.6172637803
 30
0.0
  0
VERTEX
  5
131
330
6A
100
AcDbEntity
  8
0
  6
SLD-PLNÁ
 62
     7
100
AcDbVertex
100
AcDb2dVertex
 10
153.4802684715
 20
110.3616641899
 30
0.0
  0
VERTEX
  5
132
330
6A
100
AcDbEntity
  8
0
  6
SLD-PLNÁ
 62
     7
100
AcDbVertex
100
AcDb2dVertex
 10
153.4575042502
 20
110.9892277166
 30
0.0
  0
VERTEX
  5
133
330
6A
100
AcDbEntity
  8
0
  6
SLD-PLNÁ
 62
     7
100
AcDbVertex
100
AcDb2dVertex
 10
153.4281801089
 20
111.4044159253
 30
0.0
  0
VERTEX
  5
134
330
6A
100
AcDbEntity
  8
0
  6
SLD-PLNÁ
 62
     7
100
AcDbVertex
100
AcDb2dVertex
 10
153.3967562285
 20
111.5440178473
 30
0.0
  0
VERTEX
  5
135
330
6A
100
AcDbEntity
  8
0
  6
SLD-PLNÁ
 62
     7
100
AcDbVertex
100
AcDb2dVertex
 10
153.3680188586
 20
111.3867830316
 30
0.0
  0
VERTEX
  5
136
330
6A
100
AcDbEntity
  8
0
  6
SLD-PLNÁ
 62
     7
100
AcDbVertex
100
AcDb2dVertex
 10
153.3463428857
 20
110.9566470021
 30
0.0
  0
VERTEX
  5
137
330
6A
100
AcDbEntity
  8
0
  6
SLD-PLNÁ
 62
     7
100
AcDbVertex
100
AcDb2dVertex
 10
153.3350309484
 20
110.3190959622
 30
0.0
  0
VERTEX
  5
138
330
6A
100
AcDbEntity
  8
0
  6
SLD-PLNÁ
 62
     7
100
AcDbVertex
100
AcDb2dVertex
 10
153.3357990965
 20
109.571187987
 30
0.0
  0
VERTEX
  5
139
330
6A
100
AcDbEntity
  8
0
  6
SLD-PLNÁ
 62
     7
100
AcDbVertex
100
AcDb2dVertex
 10
153.3485370268
 20
108.8267882816
 30
0.0
  0
VERTEX
  5
13A
330
6A
100
AcDbEntity
  8
0
  6
SLD-PLNÁ
 62
     7
100
AcDbVertex
100
AcDb2dVertex
 10
153.3712988455
 20
108.1992240507
 30
0.0
  0
VERTEX
  5
13B
330
6A
100
AcDbEntity
  8
0
  6
SLD-PLNÁ
 62
     7
100
AcDbVertex
100
AcDb2dVertex
 10
153.4006253895
 20
107.7840365463
 30
0.0
  0
VERTEX
  5
13C
330
6A
100
AcDbEntity
  8
0
  6
SLD-PLNÁ
 62
     7
100
AcDbVertex
100
AcDb2dVertex
 10
153.4320492698
 20
107.6444346242
 30
0.0
  0
VERTEX
  5
13D
330
6A
100
AcDbEntity
  8
0
  6
SLD-PLNÁ
 62
     7
100
AcDbVertex
100
AcDb2dVertex
 10
153.4607866397
 20
107.8016694399
 30
0.0
  0
VERTEX
  5
13E
330
6A
100
AcDbEntity
  8
0
  6
SLD-PLNÁ
 62
     7
100
AcDbVertex
100
AcDb2dVertex
 10
153.48246021
 20
108.2318047652
 30
0.0
  0
VERTEX
  5
13F
330
6A
100
AcDbEntity
  8
0
  6
SLD-PLNÁ
 62
     7
100
AcDbVertex
100
AcDb2dVertex
 10
153.4937745499
 20
108.8693565093
 30
0.0
  0
VERTEX
  5
140
330
6A
100
AcDbEntity
  8
0
  6
SLD-PLNÁ
 62
     7
100
AcDbVertex
100
AcDb2dVertex
 10
153.4930039992
 20
109.6172637803
 30
0.0
  0
SEQEND
  5
141
330
6A
100
AcDbEntity
  8
0
  6
SLD-PLNÁ
 62
     7
  0
LINE
  5
6B
330
1F
100
AcDbEntity
  8
0
  6
SLD-PLNÁ
 62
     7
100
AcDbLine
 10
118.0589108816
 20
91.9372865952
 30
0.0
 11
158.3679480267
 21
103.7516182802
 31
0.0
  0
LINE
  5
6C
330
1F
100
AcDbEntity
  8
0
  6
SLD-PLNÁ
 62
     7
100
AcDbLine
 10
116.5601914492
 20
91.9244171414
 30
0.0
 11
156.8692285942
 21
103.7387488264
 31
0.0
  0
LINE
  5
6D
330
1F
100
AcDbEntity
  8
0
  6
SLD-PLNÁ
 62
     7
100
AcDbLine
 10
156.8692285942
 20
103.7387488264
 30
0.0
 11
158.3679480267
 21
103.7516182802
 31
0.0
  0
LINE
  5
6E
330
1F
100
AcDbEntity
  8
0
  6
SLD-PLNÁ
 62
     7
100
AcDbLine
 10
158.5217895382
 20
86.753429556
 30
0.0
 11
158.3679480267
 21
103.7516182802
 31
0.0
  0
ARC
  5
6F
330
1F
100
AcDbEntity
  8
0
  6
SLD-PLNÁ
 62
     7
100
AcDbCircle
 10
155.524257653
 20
86.7252296062
 30
0.0
 40
2.997664530888919
100
AcDbArc
 50
286.3504745582
 51
0.5390069239
  0
POLYLINE
  5
70
330
1F
100
AcDbEntity
  8
0
  6
SLD-PLNÁ
 62
     7
100
AcDb2dPolyline
 66
     1
 10
0.0
 20
0.0
 30
0.0
  0
VERTEX
  5
142
330
70
100
AcDbEntity
  8
0
  6
SLD-PLNÁ
 62
     7
100
AcDbVertex
100
AcDb2dVertex
 10
154.1669255919
 20
236.7117066122
 30
0.0
  0
VERTEX
  5
143
330
70
100
AcDbEntity
  8
0
  6
SLD-PLNÁ
 62
     7
100
AcDbVertex
100
AcDb2dVertex
 10
153.5826759313
 20
236.6490387529
 30
0.0
  0
VERTEX
  5
144
330
70
100
AcDbEntity
  8
0
  6
SLD-PLNÁ
 62
     7
100
AcDbVertex
100
AcDb2dVertex
 10
153.350288228
 20
236.5909121951
 30
0.0
  0
SEQEND
  5
145
330
70
100
AcDbEntity
  8
0
  6
SLD-PLNÁ
 62
     7
  0
POLYLINE
  5
71
330
1F
100
AcDbEntity
  8
0
  6
SLD-PLNÁ
 62
     7
100
AcDb2dPolyline
 66
     1
 10
0.0
 20
0.0
 30
0.0
  0
VERTEX
  5
146
330
71
100
AcDbEntity
  8
0
  6
SLD-PLNÁ
 62
     7
100
AcDbVertex
100
AcDb2dVertex
 10
113.6445865625
 20
203.2052470292
 30
0.0
  0
VERTEX
  5
147
330
71
100
AcDbEntity
  8
0
  6
SLD-PLNÁ
 62
     7
100
AcDbVertex
100
AcDb2dVertex
 10
113.6318504019
 20
203.9496341817
 30
0.0
  0
VERTEX
  5
148
330
71
100
AcDbEntity
  8
0
  6
SLD-PLNÁ
 62
     7
100
AcDbVertex
100
AcDb2dVertex
 10
113.6090865223
 20
204.5772015433
 30
0.0
  0
VERTEX
  5
149
330
71
100
AcDbEntity
  8
0
  6
SLD-PLNÁ
 62
     7
100
AcDbVertex
100
AcDb2dVertex
 10
113.5797605699
 20
204.992398558
 30
0.0
  0
VERTEX
  5
14A
330
71
100
AcDbEntity
  8
0
  6
SLD-PLNÁ
 62
     7
100
AcDbVertex
100
AcDb2dVertex
 10
113.548337474
 20
205.1319969752
 30
0.0
  0
VERTEX
  5
14B
330
71
100
AcDbEntity
  8
0
  6
SLD-PLNÁ
 62
     7
100
AcDbVertex
100
AcDb2dVertex
 10
113.5196007462
 20
204.9747660825
 30
0.0
  0
VERTEX
  5
14C
330
71
100
AcDbEntity
  8
0
  6
SLD-PLNÁ
 62
     7
100
AcDbVertex
100
AcDb2dVertex
 10
113.4979256084
 20
204.5446209608
 30
0.0
  0
VERTEX
  5
14D
330
71
100
AcDbEntity
  8
0
  6
SLD-PLNÁ
 62
     7
100
AcDbVertex
100
AcDb2dVertex
 10
113.4866116776
 20
203.9070656019
 30
0.0
  0
VERTEX
  5
14E
330
71
100
AcDbEntity
  8
0
  6
SLD-PLNÁ
 62
     7
100
AcDbVertex
100
AcDb2dVertex
 10
113.4873813594
 20
203.1591711479
 30
0.0
  0
VERTEX
  5
14F
330
71
100
AcDbEntity
  8
0
  6
SLD-PLNÁ
 62
     7
100
AcDbVertex
100
AcDb2dVertex
 10
113.5001176548
 20
202.4147690959
 30
0.0
  0
VERTEX
  5
150
330
71
100
AcDbEntity
  8
0
  6
SLD-PLNÁ
 62
     7
100
AcDbVertex
100
AcDb2dVertex
 10
113.5228815345
 20
201.7872017343
 30
0.0
  0
VERTEX
  5
151
330
71
100
AcDbEntity
  8
0
  6
SLD-PLNÁ
 62
     7
100
AcDbVertex
100
AcDb2dVertex
 10
113.552207277
 20
201.3720195971
 30
0.0
  0
VERTEX
  5
152
330
71
100
AcDbEntity
  8
0
  6
SLD-PLNÁ
 62
     7
100
AcDbVertex
100
AcDb2dVertex
 10
113.5836305828
 20
201.2324063023
 30
0.0
  0
VERTEX
  5
153
330
71
100
AcDbEntity
  8
0
  6
SLD-PLNÁ
 62
     7
100
AcDbVertex
100
AcDb2dVertex
 10
113.6123671007
 20
201.3896520727
 30
0.0
  0
VERTEX
  5
154
330
71
100
AcDbEntity
  8
0
  6
SLD-PLNÁ
 62
     7
100
AcDbVertex
100
AcDb2dVertex
 10
113.6340424484
 20
201.8197823167
 30
0.0
  0
VERTEX
  5
155
330
71
100
AcDbEntity
  8
0
  6
SLD-PLNÁ
 62
     7
100
AcDbVertex
100
AcDb2dVertex
 10
113.6453563792
 20
202.4573376757
 30
0.0
  0
VERTEX
  5
156
330
71
100
AcDbEntity
  8
0
  6
SLD-PLNÁ
 62
     7
100
AcDbVertex
100
AcDb2dVertex
 10
113.6445865625
 20
203.2052470292
 30
0.0
  0
SEQEND
  5
157
330
71
100
AcDbEntity
  8
0
  6
SLD-PLNÁ
 62
     7
  0
POLYLINE
  5
72
330
1F
100
AcDbEntity
  8
0
  6
SLD-PLNÁ
 62
     7
100
AcDb2dPolyline
 66
     1
 10
0.0
 20
0.0
 30
0.0
  0
VERTEX
  5
158
330
72
100
AcDbEntity
  8
0
  6
SLD-PLNÁ
 62
     7
100
AcDbVertex
100
AcDb2dVertex
 10
114.1196854084
 20
150.7108339921
 30
0.0
  0
VERTEX
  5
159
330
72
100
AcDbEntity
  8
0
  6
SLD-PLNÁ
 62
     7
100
AcDbVertex
100
AcDb2dVertex
 10
114.106949113
 20
151.4552360441
 30
0.0
  0
VERTEX
  5
15A
330
72
100
AcDbEntity
  8
0
  6
SLD-PLNÁ
 62
     7
100
AcDbVertex
100
AcDb2dVertex
 10
114.0841852334
 20
152.0828034057
 30
0.0
  0
VERTEX
  5
15B
330
72
100
AcDbEntity
  8
0
  6
SLD-PLNÁ
 62
     7
100
AcDbVertex
100
AcDb2dVertex
 10
114.0548594158
 20
152.4979855209
 30
0.0
  0
VERTEX
  5
15C
330
72
100
AcDbEntity
  8
0
  6
SLD-PLNÁ
 62
     7
100
AcDbVertex
100
AcDb2dVertex
 10
114.0234362525
 20
152.6375913879
 30
0.0
  0
VERTEX
  5
15D
330
72
100
AcDbEntity
  8
0
  6
SLD-PLNÁ
 62
     7
100
AcDbVertex
100
AcDb2dVertex
 10
113.9946995921
 20
152.4803530454
 30
0.0
  0
VERTEX
  5
15E
330
72
100
AcDbEntity
  8
0
  6
SLD-PLNÁ
 62
     7
100
AcDbVertex
100
AcDb2dVertex
 10
113.9730243194
 20
152.0502228233
 30
0.0
  0
VERTEX
  5
15F
330
72
100
AcDbEntity
  8
0
  6
SLD-PLNÁ
 62
     7
100
AcDbVertex
100
AcDb2dVertex
 10
113.9617103887
 20
151.4126674643
 30
0.0
  0
VERTEX
  5
160
330
72
100
AcDbEntity
  8
0
  6
SLD-PLNÁ
 62
     7
100
AcDbVertex
100
AcDb2dVertex
 10
113.9624802053
 20
150.6647581108
 30
0.0
  0
VERTEX
  5
161
330
72
100
AcDbEntity
  8
0
  6
SLD-PLNÁ
 62
     7
100
AcDbVertex
100
AcDb2dVertex
 10
113.9752164333
 20
149.9203635086
 30
0.0
  0
VERTEX
  5
162
330
72
100
AcDbEntity
  8
0
  6
SLD-PLNÁ
 62
     7
100
AcDbVertex
100
AcDb2dVertex
 10
113.997980313
 20
149.292796147
 30
0.0
  0
VERTEX
  5
163
330
72
100
AcDbEntity
  8
0
  6
SLD-PLNÁ
 62
     7
100
AcDbVertex
100
AcDb2dVertex
 10
114.0273061229
 20
148.87760656
 30
0.0
  0
VERTEX
  5
164
330
72
100
AcDbEntity
  8
0
  6
SLD-PLNÁ
 62
     7
100
AcDbVertex
100
AcDb2dVertex
 10
114.0587292938
 20
148.7380081648
 30
0.0
  0
VERTEX
  5
165
330
72
100
AcDbEntity
  8
0
  6
SLD-PLNÁ
 62
     7
100
AcDbVertex
100
AcDb2dVertex
 10
114.0874659466
 20
148.8952390355
 30
0.0
  0
VERTEX
  5
166
330
72
100
AcDbEntity
  8
0
  6
SLD-PLNÁ
 62
     7
100
AcDbVertex
100
AcDb2dVertex
 10
114.1091412269
 20
149.3253767294
 30
0.0
  0
VERTEX
  5
167
330
72
100
AcDbEntity
  8
0
  6
SLD-PLNÁ
 62
     7
100
AcDbVertex
100
AcDb2dVertex
 10
114.1204551577
 20
149.9629320884
 30
0.0
  0
VERTEX
  5
168
330
72
100
AcDbEntity
  8
0
  6
SLD-PLNÁ
 62
     7
100
AcDbVertex
100
AcDb2dVertex
 10
114.1196854084
 20
150.7108339921
 30
0.0
  0
SEQEND
  5
169
330
72
100
AcDbEntity
  8
0
  6
SLD-PLNÁ
 62
     7
  0
POLYLINE
  5
73
330
1F
100
AcDbEntity
  8
0
  6
SLD-PLNÁ
 62
     7
100
AcDb2dPolyline
 66
     1
 10
0.0
 20
0.0
 30
0.0
  0
VERTEX
  5
16A
330
73
100
AcDbEntity
  8
0
  6
SLD-PLNÁ
 62
     7
100
AcDbVertex
100
AcDb2dVertex
 10
114.5947841363
 20
98.2164339921
 30
0.0
  0
VERTEX
  5
16B
330
73
100
AcDbEntity
  8
0
  6
SLD-PLNÁ
 62
     7
100
AcDbVertex
100
AcDb2dVertex
 10
114.5820478578
 20
98.9608341817
 30
0.0
  0
VERTEX
  5
16C
330
73
100
AcDbEntity
  8
0
  6
SLD-PLNÁ
 62
     7
100
AcDbVertex
100
AcDb2dVertex
 10
114.5592840118
 20
99.5883978184
 30
0.0
  0
VERTEX
  5
16D
330
73
100
AcDbEntity
  8
0
  6
SLD-PLNÁ
 62
     7
100
AcDbVertex
100
AcDb2dVertex
 10
114.5299581437
 20
100.0035855209
 30
0.0
  0
VERTEX
  5
16E
330
73
100
AcDbEntity
  8
0
  6
SLD-PLNÁ
 62
     7
100
AcDbVertex
100
AcDb2dVertex
 10
114.4985350141
 20
100.143187663
 30
0.0
  0
VERTEX
  5
16F
330
73
100
AcDbEntity
  8
0
  6
SLD-PLNÁ
 62
     7
100
AcDbVertex
100
AcDb2dVertex
 10
114.46979832
 20
99.9859530454
 30
0.0
  0
VERTEX
  5
170
330
73
100
AcDbEntity
  8
0
  6
SLD-PLNÁ
 62
     7
100
AcDbVertex
100
AcDb2dVertex
 10
114.4481230979
 20
99.5558172359
 30
0.0
  0
VERTEX
  5
171
330
73
100
AcDbEntity
  8
0
  6
SLD-PLNÁ
 62
     7
100
AcDbVertex
100
AcDb2dVertex
 10
114.4368091334
 20
98.9182656019
 30
0.0
  0
VERTEX
  5
172
330
73
100
AcDbEntity
  8
0
  6
SLD-PLNÁ
 62
     7
100
AcDbVertex
100
AcDb2dVertex
 10
114.4375789333
 20
98.1703581108
 30
0.0
  0
VERTEX
  5
173
330
73
100
AcDbEntity
  8
0
  6
SLD-PLNÁ
 62
     7
100
AcDbVertex
100
AcDb2dVertex
 10
114.4503152118
 20
97.4259579213
 30
0.0
  0
VERTEX
  5
174
330
73
100
AcDbEntity
  8
0
  6
SLD-PLNÁ
 62
     7
100
AcDbVertex
100
AcDb2dVertex
 10
114.4730790577
 20
96.7983942845
 30
0.0
  0
VERTEX
  5
175
330
73
100
AcDbEntity
  8
0
  6
SLD-PLNÁ
 62
     7
100
AcDbVertex
100
AcDb2dVertex
 10
114.5024048508
 20
96.38320656
 30
0.0
  0
VERTEX
  5
176
330
73
100
AcDbEntity
  8
0
  6
SLD-PLNÁ
 62
     7
100
AcDbVertex
100
AcDb2dVertex
 10
114.5338280554
 20
96.2436044399
 30
0.0
  0
VERTEX
  5
177
330
73
100
AcDbEntity
  8
0
  6
SLD-PLNÁ
 62
     7
100
AcDbVertex
100
AcDb2dVertex
 10
114.5625646745
 20
96.4008390355
 30
0.0
  0
VERTEX
  5
178
330
73
100
AcDbEntity
  8
0
  6
SLD-PLNÁ
 62
     7
100
AcDbVertex
100
AcDb2dVertex
 10
114.5842399716
 20
96.830974867
 30
0.0
  0
VERTEX
  5
179
330
73
100
AcDbEntity
  8
0
  6
SLD-PLNÁ
 62
     7
100
AcDbVertex
100
AcDb2dVertex
 10
114.5955539361
 20
97.468526501
 30
0.0
  0
VERTEX
  5
17A
330
73
100
AcDbEntity
  8
0
  6
SLD-PLNÁ
 62
     7
100
AcDbVertex
100
AcDb2dVertex
 10
114.5947841363
 20
98.2164339921
 30
0.0
  0
SEQEND
  5
17B
330
73
100
AcDbEntity
  8
0
  6
SLD-PLNÁ
 62
     7
  0
LINE
  5
74
330
1F
100
AcDbEntity
  8
0
  6
SLD-PLNÁ
 62
     7
100
AcDbLine
 10
110.5653137194
 20
91.8729393263
 30
0.0
 11
112.0640333845
 21
91.8858087821
 31
0.0
  0
LINE
  5
75
330
1F
100
AcDbEntity
  8
0
  6
SLD-PLNÁ
 62
     7
100
AcDbLine
 10
112.0640333845
 20
91.8858087821
 30
0.0
 11
112.2133501456
 21
75.3875667816
 31
0.0
  0
LINE
  5
76
330
1F
100
AcDbEntity
  8
0
  6
SLD-PLNÁ
 62
     7
100
AcDbLine
 10
110.5653137194
 20
91.8729393263
 30
0.0
 11
110.7146304805
 21
75.3746973258
 31
0.0
  0
LINE
  5
77
330
1F
100
AcDbEntity
  8
0
  6
SLD-PLNÁ
 62
     7
100
AcDbLine
 10
110.5653137194
 20
91.8729393263
 30
0.0
 11
112.0601842898
 21
92.3110767266
 31
0.0
  0
ARC
  5
78
330
1F
100
AcDbEntity
  8
0
  6
SLD-PLNÁ
 62
     7
100
AcDbCircle
 10
108.7169497399
 20
75.354331498
 30
0.0
 40
3.496558362330684
100
AcDbArc
 50
270.5089843908
 51
0.5446127187
  0
ARC
  5
79
330
1F
100
AcDbEntity
  8
0
  6
SLD-PLNÁ
 62
     7
100
AcDbCircle
 10
108.7166876508
 20
75.3557054724
 30
0.0
 40
1.998033093173899
100
AcDbArc
 50
270.5089770242
 51
0.5446203237
  0
LINE
  5
7A
330
1F
100
AcDbEntity
  8
0
  6
SLD-PLNÁ
 62
     7
100
AcDbLine
 10
92.262098251
 20
71.7163471199
 30
0.0
 11
92.2485240007
 21
73.216187233
 31
0.0
  0
LINE
  5
7B
330
1F
100
AcDbEntity
  8
0
  6
SLD-PLNÁ
 62
     7
100
AcDbLine
 10
108.7344365945
 20
73.3577512146
 30
0.0
 11
92.2485240007
 21
73.216187233
 31
0.0
  0
LINE
  5
7C
330
1F
100
AcDbEntity
  8
0
  6
SLD-PLNÁ
 62
     7
100
AcDbLine
 10
108.7480108449
 20
71.8579111015
 30
0.0
 11
92.262098251
 21
71.7163471199
 31
0.0
  0
LINE
  5
7D
330
1F
100
AcDbEntity
  8
0
  6
SLD-PLNÁ
 62
     7
100
AcDbLine
 10
92.2485240007
 20
73.216187233
 30
0.0
 11
110.685261086
 21
78.6198818519
 31
0.0
  0
LINE
  5
7E
330
1F
100
AcDbEntity
  8
0
  6
SLD-PLNÁ
 62
     7
100
AcDbLine
 10
162.3164814133
 20
225.3134872489
 30
0.0
 11
202.6255185583
 21
237.1278189339
 31
0.0
  0
LINE
  5
7F
330
1F
100
AcDbEntity
  8
0
  6
SLD-PLNÁ
 62
     7
100
AcDbLine
 10
113.8578884468
 20
224.8973749272
 30
0.0
 11
154.1669255919
 21
236.7117066122
 31
0.0
  0
LINE
  5
80
330
1F
100
AcDbEntity
  8
0
  6
SLD-PLNÁ
 62
     7
100
AcDbLine
 10
112.38631757
 20
221.8848191943
 30
0.0
 11
117.6584450623
 21
223.4300474432
 31
0.0
  0
LINE
  5
81
330
1F
100
AcDbEntity
  8
0
  6
SLD-PLNÁ
 62
     7
100
AcDbLine
 10
113.7165940957
 20
74.9004895096
 30
0.0
 11
116.7063352366
 21
75.7767643103
 31
0.0
  0
LINE
  5
82
330
1F
100
AcDbEntity
  8
0
  6
SLD-PLNÁ
 62
     7
100
AcDbLine
 10
118.2127523931
 20
74.939097871
 30
0.0
 11
158.5217895382
 21
86.753429556
 31
0.0
  0
LINE
  5
83
330
1F
100
AcDbEntity
  8
0
  6
SLD-PLNÁ
 62
     7
100
AcDbLine
 10
110.7146304805
 20
75.3746973258
 30
0.0
 11
112.2133501456
 21
75.3875667816
 31
0.0
  0
LINE
  5
84
330
1F
100
AcDbEntity
  8
0
  6
SLD-PLNÁ
 62
     7
100
AcDbLine
 10
108.7480108449
 20
71.8579111015
 30
0.0
 11
108.7344365945
 21
73.3577512146
 31
0.0
  0
LINE
  5
85
330
1F
100
AcDbEntity
  8
0
  6
SLD-PLNÁ
 62
     7
100
AcDbLine
 10
108.7344365945
 20
73.3577512146
 30
0.0
 11
109.7806178964
 21
73.6643805409
 31
0.0
  0
DIMENSION
  5
86
330
1F
100
AcDbEntity
  8
0
  6
SLD-PLNÁ
 62
     9
100
AcDbDimension
  2
*D1
 10
153.670488961
 20
136.9956300486
 30
0.0
 11
135.745056883
 21
131.7417957929
 31
0.0
 70
   160
  3
SLDDIMSTYLE0
100
AcDbAlignedDimension
 13
113.8165087498
 23
74.9013474734
 33
0.0
 14
154.1255458948
 24
86.7156791584
 34
0.0
 50
16.3355375002
100
AcDbRotatedDimension
  0
ARC
  5
90
330
1F
100
AcDbEntity
  8
0
  6
SLD-PLNÁ
 62
     7
100
AcDbCircle
 10
55.8588935722
 20
88.2583772392
 30
0.0
 40
3.0
100
AcDbArc
 50
180.0
 51
0.0
  0
LINE
  5
91
330
1F
100
AcDbEntity
  8
0
  6
SLD-PLNÁ
 62
     7
100
AcDbLine
 10
52.8588937659
 20
235.25837712
 30
0.0
 11
52.8588937659
 21
88.2583772392
 31
0.0
  0
ARC
  5
92
330
1F
100
AcDbEntity
  8
0
  6
SLD-PLNÁ
 62
     7
100
AcDbCircle
 10
55.8588935722
 20
235.2583772392
 30
0.0
 40
3.0
100
AcDbArc
 50
90.0
 51
180.0
  0
LINE
  5
93
330
1F
100
AcDbEntity
  8
0
  6
SLD-PLNÁ
 62
     7
100
AcDbLine
 10
102.8588926483
 20
238.2583831997
 30
0.0
 11
55.8588935591
 21
238.2583831997
 31
0.0
  0
LINE
  5
94
330
1F
100
AcDbEntity
  8
0
  6
SLD-PLNÁ
 62
     7
100
AcDbLine
 10
102.8588926483
 20
286.7583846302
 30
0.0
 11
102.8588926483
 21
238.2583831997
 31
0.0
  0
LINE
  5
95
330
1F
100
AcDbEntity
  8
0
  6
SLD-PLNÁ
 62
     7
100
AcDbLine
 10
102.8588926483
 20
286.7583846302
 30
0.0
 11
104.3588919629
 21
286.7583846302
 31
0.0
  0
LINE
  5
96
330
1F
100
AcDbEntity
  8
0
  6
SLD-PLNÁ
 62
     7
100
AcDbLine
 10
104.3588919629
 20
286.7583846302
 30
0.0
 11
104.3588919629
 21
238.2583831997
 31
0.0
  0
ARC
  5
97
330
1F
100
AcDbEntity
  8
0
  6
SLD-PLNÁ
 62
     7
100
AcDbCircle
 10
102.8588935722
 20
238.2583772392
 30
0.0
 40
1.5
100
AcDbArc
 50
270.0
 51
0.0
  0
LINE
  5
98
330
1F
100
AcDbEntity
  8
0
  6
SLD-PLNÁ
 62
     7
100
AcDbLine
 10
102.8588926483
 20
236.7583727092
 30
0.0
 11
55.8588935591
 21
236.7583727092
 31
0.0
  0
ARC
  5
99
330
1F
100
AcDbEntity
  8
0
  6
SLD-PLNÁ
 62
     7
100
AcDbCircle
 10
55.8588935722
 20
235.2583772392
 30
0.0
 40
1.5
100
AcDbArc
 50
90.0
 51
180.0
  0
LINE
  5
9A
330
1F
100
AcDbEntity
  8
0
  6
SLD-PLNÁ
 62
     7
100
AcDbLine
 10
54.3588935461
 20
235.25837712
 30
0.0
 11
54.3588935461
 21
88.2583772392
 31
0.0
  0
ARC
  5
9B
330
1F
100
AcDbEntity
  8
0
  6
SLD-PLNÁ
 62
     7
100
AcDbCircle
 10
55.8588935722
 20
88.2583772392
 30
0.0
 40
1.5
100
AcDbArc
 50
180.0
 51
0.0
  0
LINE
  5
9C
330
1F
100
AcDbEntity
  8
0
  6
SLD-PLNÁ
 62
     7
100
AcDbLine
 10
57.3588935722
 20
88.2583772392
 30
0.0
 11
57.3588935722
 21
105.2583781631
 31
0.0
  0
LINE
  5
9D
330
1F
100
AcDbEntity
  8
0
  6
SLD-PLNÁ
 62
     7
100
AcDbLine
 10
57.3588935722
 20
105.2583781631
 30
0.0
 11
58.8588935852
 21
105.2583781631
 31
0.0
  0
LINE
  5
9E
330
1F
100
AcDbEntity
  8
0
  6
SLD-PLNÁ
 62
     7
100
AcDbLine
 10
58.8588935852
 20
88.2583772392
 30
0.0
 11
58.8588935852
 21
105.2583781631
 31
0.0
  0
LINE
  5
9F
330
1F
100
AcDbEntity
  8
0
  6
SLD-PLNÁ
 62
     7
100
AcDbLine
 10
32.8588942129
 20
85.2583772131
 30
0.0
 11
32.8588942129
 21
86.7583772262
 31
0.0
  0
LINE
  5
A0
330
1F
100
AcDbEntity
  8
0
  6
SLD-PLNÁ
 62
     7
100
AcDbLine
 10
49.3588931922
 20
86.7583772262
 30
0.0
 11
32.8588942129
 21
86.7583772262
 31
0.0
  0
LINE
  5
A1
330
1F
100
AcDbEntity
  8
0
  6
SLD-PLNÁ
 62
     7
100
AcDbLine
 10
49.3588931922
 20
85.2583772131
 30
0.0
 11
32.8588942129
 21
85.2583772131
 31
0.0
  0
LINE
  5
A2
330
1F
100
AcDbEntity
  8
0
  6
SLD-PLNÁ
 62
     7
100
AcDbLine
 10
52.8588937659
 20
105.2583781631
 30
0.0
 11
52.8588937659
 21
88.7583772629
 31
0.0
  0
LINE
  5
A3
330
1F
100
AcDbEntity
  8
0
  6
SLD-PLNÁ
 62
     7
100
AcDbLine
 10
51.35889352
 20
105.2583781631
 30
0.0
 11
52.8588937659
 21
105.2583781631
 31
0.0
  0
LINE
  5
A4
330
1F
100
AcDbEntity
  8
0
  6
SLD-PLNÁ
 62
     7
100
AcDbLine
 10
51.35889352
 20
105.2583781631
 30
0.0
 11
51.35889352
 21
88.7583772629
 31
0.0
  0
ARC
  5
A5
330
1F
100
AcDbEntity
  8
0
  6
SLD-PLNÁ
 62
     7
100
AcDbCircle
 10
49.3588935722
 20
88.7583772392
 30
0.0
 40
2.000000000000007
100
AcDbArc
 50
270.0
 51
0.0
  0
ARC
  5
A6
330
1F
100
AcDbEntity
  8
0
  6
SLD-PLNÁ
 62
     7
100
AcDbCircle
 10
49.3588935722
 20
88.7583772392
 30
0.0
 40
3.500000000000007
100
AcDbArc
 50
270.0
 51
0.0
  0
LINE
  5
A7
330
1F
100
AcDbEntity
  8
0
  6
SLD-PLNÁ
 62
     7
100
AcDbLine
 10
49.3588931922
 20
85.2583772131
 30
0.0
 11
49.3588931922
 21
86.7583772262
 31
0.0
  0
LINE
  5
A8
330
1F
100
AcDbEntity
  8
0
  6
SLD-PLNÁ
 62
     7
100
AcDbLine
 10
51.35889352
 20
88.7583772629
 30
0.0
 11
52.8588937659
 21
88.7583772629
 31
0.0
  0
DIMENSION
  5
A9
330
1F
100
AcDbEntity
  8
0
  6
SLD-PLNÁ
 62
     9
100
AcDbDimension
  2
*D2
 10
16.8588935722
 20
238.2583772392
 30
0.0
 11
16.8588935722
 21
162.488099823
 31
0.0
 70
   160
  3
SLDDIMSTYLE0
100
AcDbAlignedDimension
 13
32.8588935722
 23
85.2583772392
 33
0.0
 14
55.8588935722
 24
238.2583772392
 34
0.0
 50
90.0
100
AcDbRotatedDimension
  0
DIMENSION
  5
B3
330
1F
100
AcDbEntity
  8
0
  6
SLD-PLNÁ
 62
     9
100
AcDbDimension
  2
*D3
 10
104.3588935722
 20
215.6609491093
 30
0.0
 11
80.5244987862
 21
215.6609491093
 31
0.0
 70
   160
  3
SLDDIMSTYLE0
100
AcDbAlignedDimension
 13
52.8588935722
 23
235.2583772392
 33
0.0
 14
104.3588935722
 24
238.2583772392
 34
0.0
100
AcDbRotatedDimension
  0
DIMENSION
  5
BC
330
1F
100
AcDbEntity
  8
0
  6
SLD-PLNÁ
 62
     9
100
AcDbDimension
  2
*D4
 10
120.3588935722
 20
238.2583772392
 30
0.0
 11
120.3588935722
 21
264.7605956971
 31
0.0
 70
   160
  3
SLDDIMSTYLE0
100
AcDbAlignedDimension
 13
104.3588935722
 23
286.7583772392
 33
0.0
 14
102.8588935722
 24
238.2583772392
 34
0.0
 50
90.0
100
AcDbRotatedDimension
  0
DIMENSION
  5
C6
330
1F
100
AcDbEntity
  8
0
  6
SLD-PLNÁ
 62
     9
100
AcDbDimension
  2
*D5
 10
52.8588935722
 20
113.7701879564
 30
0.0
 11
43.8141721266
 21
113.7701879564
 31
0.0
 70
   160
  3
SLDDIMSTYLE1
100
AcDbAlignedDimension
 13
32.8588935722
 23
86.7583772392
 33
0.0
 14
52.8588935722
 24
88.2583772392
 34
0.0
100
AcDbRotatedDimension
  0
ENDSEC
  0
SECTION
  2
OBJECTS
  0
DICTIONARY
  5
C
330
0
100
AcDbDictionary
  3
ACAD_GROUP
350
D
  3
ACAD_MLINESTYLE
350
17
1001
ACAD
1000
TREAT_AS_HARD
1070
     0
  0
DICTIONARY
  5
D
102
{ACAD_REACTORS
330
C
102
}
330
C
100
AcDbDictionary
1001
ACAD
1000
TREAT_AS_HARD
1070
     0
  0
DICTIONARY
  5
17
102
{ACAD_REACTORS
330
C
102
}
330
C
100
AcDbDictionary
  3
STANDARD
350
18
1001
ACAD
1000
TREAT_AS_HARD
1070
     0
  0
MLINESTYLE
  5
18
102
{ACAD_REACTORS
330
17
102
}
330
17
100
AcDbMlineStyle
  2
Standard
 70
     0
  3

 62
   256
 51
90.0
 52
90.0
 71
     2
 49
0.5
 62
   256
  6
BYLAYER
 49
-0.5
 62
   256
  6
BYLAYER
  0
ENDSEC
  0
EOF
