  0
SECTION
  2
HEADER
  9
$ACADVER
  1
AC1015
  9
$ACADMAINTVER
 70
     6
  9
$DWGCODEPAGE
  3
ANSI_1250
  9
$INSBASE
 10
0.0
 20
0.0
 30
0.0
  9
$EXTMIN
 10
0.0
 20
0.0
 30
0.0
  9
$EXTMAX
 10
210.0
 20
297.0
 30
0.0
  9
$LIMMIN
 10
0.0
 20
0.0
  9
$LIMMAX
 10
210.0
 20
297.0
  9
$ORTHOMODE
 70
     0
  9
$REGENMODE
 70
     1
  9
$FILLMODE
 70
     1
  9
$QTEXTMODE
 70
     0
  9
$MIRRTEXT
 70
     1
  9
$LTSCALE
 40
1.0
  9
$ATTMODE
 70
     1
  9
$TEXTSIZE
 40
2.5
  9
$TRACEWID
 40
1.0
  9
$TEXTSTYLE
  7
Standard
  9
$CLAYER
  8
0
  9
$CELTYPE
  6
ByLayer
  9
$CECOLOR
 62
   256
  9
$CELTSCALE
 40
1.0
  9
$DISPSILH
 70
     0
  9
$DIMSCALE
 40
1.0
  9
$DIMASZ
 40
2.5
  9
$DIMEXO
 40
0.0
  9
$DIMDLI
 40
3.75
  9
$DIMRND
 40
0.0
  9
$DIMDLE
 40
0.0
  9
$DIMEXE
 40
1.0
  9
$DIMTP
 40
0.0
  9
$DIMTM
 40
0.0
  9
$DIMTXT
 40
2.5
  9
$DIMCEN
 40
2.5
  9
$DIMTSZ
 40
0.0
  9
$DIMTOL
 70
     0
  9
$DIMLIM
 70
     0
  9
$DIMTIH
 70
     1
  9
$DIMTOH
 70
     1
  9
$DIMSE1
 70
     0
  9
$DIMSE2
 70
     0
  9
$DIMTAD
 70
     1
  9
$DIMZIN
 70
     1
  9
$DIMBLK
  1

  9
$DIMASO
 70
     1
  9
$DIMSHO
 70
     1
  9
$DIMPOST
  1

  9
$DIMAPOST
  1

  9
$DIMALT
 70
     0
  9
$DIMALTD
 70
     3
  9
$DIMALTF
 40
0.0393700787
  9
$DIMLFAC
 40
1.0
  9
$DIMTOFL
 70
     1
  9
$DIMTVP
 40
0.0
  9
$DIMTIX
 70
     0
  9
$DIMSOXD
 70
     0
  9
$DIMSAH
 70
     0
  9
$DIMBLK1
  1

  9
$DIMBLK2
  1

  9
$DIMSTYLE
  2
ISO-25
  9
$DIMCLRD
 70
     0
  9
$DIMCLRE
 70
     0
  9
$DIMCLRT
 70
     0
  9
$DIMTFAC
 40
1.0
  9
$DIMGAP
 40
1.524
  9
$DIMJUST
 70
     0
  9
$DIMSD1
 70
     0
  9
$DIMSD2
 70
     0
  9
$DIMTOLJ
 70
     0
  9
$DIMTZIN
 70
     1
  9
$DIMALTZ
 70
     0
  9
$DIMALTTZ
 70
     0
  9
$DIMUPT
 70
     0
  9
$DIMDEC
 70
     2
  9
$DIMTDEC
 70
     2
  9
$DIMALTU
 70
     2
  9
$DIMALTTD
 70
     3
  9
$DIMTXSTY
  7
Standard
  9
$DIMAUNIT
 70
     0
  9
$DIMADEC
 70
     2
  9
$DIMALTRND
 40
0.0
  9
$DIMAZIN
 70
     0
  9
$DIMDSEP
 70
    44
  9
$DIMATFIT
 70
     3
  9
$DIMFRAC
 70
     0
  9
$DIMLDRBLK
  1

  9
$DIMLUNIT
 70
     2
  9
$DIMLWD
 70
    -2
  9
$DIMLWE
 70
    -2
  9
$DIMTMOVE
 70
     0
  9
$LUNITS
 70
     2
  9
$LUPREC
 70
     0
  9
$SKETCHINC
 40
1.0
  9
$FILLETRAD
 40
10.0
  9
$AUNITS
 70
     0
  9
$AUPREC
 70
     2
  9
$MENU
  1
.
  9
$ELEVATION
 40
0.0
  9
$PELEVATION
 40
0.0
  9
$THICKNESS
 40
0.0
  9
$LIMCHECK
 70
     0
  9
$CHAMFERA
 40
10.0
  9
$CHAMFERB
 40
10.0
  9
$CHAMFERC
 40
20.0
  9
$CHAMFERD
 40
0.0
  9
$SKPOLY
 70
     0
  9
$TDCREATE
 40
2455715.566860613
  9
$TDUCREATE
 40
2455715.48352728
  9
$TDUPDATE
 40
2455715.566860625
  9
$TDUUPDATE
 40
2455715.483527292
  9
$TDINDWG
 40
0.0000000116
  9
$TDUSRTIMER
 40
0.0000000116
  9
$USRTIMER
 70
     1
  9
$ANGBASE
 50
0.0
  9
$ANGDIR
 70
     0
  9
$PDMODE
 70
     0
  9
$PDSIZE
 40
-1.0
  9
$PLINEWID
 40
0.0
  9
$SPLFRAME
 70
     0
  9
$SPLINETYPE
 70
     6
  9
$SPLINESEGS
 70
     8
  9
$HANDSEED
  5
256
  9
$SURFTAB1
 70
     6
  9
$SURFTAB2
 70
     6
  9
$SURFTYPE
 70
     6
  9
$SURFU
 70
     6
  9
$SURFV
 70
     6
  9
$UCSBASE
  2

  9
$UCSNAME
  2

  9
$UCSORG
 10
0.0
 20
0.0
 30
0.0
  9
$UCSXDIR
 10
1.0
 20
0.0
 30
0.0
  9
$UCSYDIR
 10
0.0
 20
1.0
 30
0.0
  9
$UCSORTHOREF
  2

  9
$UCSORTHOVIEW
 70
     0
  9
$UCSORGTOP
 10
0.0
 20
0.0
 30
0.0
  9
$UCSORGBOTTOM
 10
0.0
 20
0.0
 30
0.0
  9
$UCSORGLEFT
 10
0.0
 20
0.0
 30
0.0
  9
$UCSORGRIGHT
 10
0.0
 20
0.0
 30
0.0
  9
$UCSORGFRONT
 10
0.0
 20
0.0
 30
0.0
  9
$UCSORGBACK
 10
0.0
 20
0.0
 30
0.0
  9
$PUCSBASE
  2

  9
$PUCSNAME
  2

  9
$PUCSORG
 10
0.0
 20
0.0
 30
0.0
  9
$PUCSXDIR
 10
1.0
 20
0.0
 30
0.0
  9
$PUCSYDIR
 10
0.0
 20
1.0
 30
0.0
  9
$PUCSORTHOREF
  2

  9
$PUCSORTHOVIEW
 70
     0
  9
$PUCSORGTOP
 10
0.0
 20
0.0
 30
0.0
  9
$PUCSORGBOTTOM
 10
0.0
 20
0.0
 30
0.0
  9
$PUCSORGLEFT
 10
0.0
 20
0.0
 30
0.0
  9
$PUCSORGRIGHT
 10
0.0
 20
0.0
 30
0.0
  9
$PUCSORGFRONT
 10
0.0
 20
0.0
 30
0.0
  9
$PUCSORGBACK
 10
0.0
 20
0.0
 30
0.0
  9
$USERI1
 70
     0
  9
$USERI2
 70
     0
  9
$USERI3
 70
     0
  9
$USERI4
 70
     0
  9
$USERI5
 70
     0
  9
$USERR1
 40
0.0
  9
$USERR2
 40
0.0
  9
$USERR3
 40
0.0
  9
$USERR4
 40
0.0
  9
$USERR5
 40
0.0
  9
$WORLDVIEW
 70
     1
  9
$SHADEDGE
 70
     3
  9
$SHADEDIF
 70
    70
  9
$TILEMODE
 70
     1
  9
$MAXACTVP
 70
    64
  9
$PINSBASE
 10
0.0
 20
0.0
 30
0.0
  9
$PLIMCHECK
 70
     0
  9
$PEXTMIN
 10
1.0000000000E+20
 20
1.0000000000E+20
 30
1.0000000000E+20
  9
$PEXTMAX
 10
-1.0000000000E+20
 20
-1.0000000000E+20
 30
-1.0000000000E+20
  9
$PLIMMIN
 10
0.0
 20
0.0
  9
$PLIMMAX
 10
420.0
 20
297.0
  9
$UNITMODE
 70
     0
  9
$VISRETAIN
 70
     1
  9
$PLINEGEN
 70
     0
  9
$PSLTSCALE
 70
     1
  9
$TREEDEPTH
 70
  3020
  9
$CMLSTYLE
  2
Standard
  9
$CMLJUST
 70
     0
  9
$CMLSCALE
 40
20.0
  9
$PROXYGRAPHICS
 70
     1
  9
$MEASUREMENT
 70
     1
  9
$CELWEIGHT
370
    -1
  9
$ENDCAPS
280
     0
  9
$JOINSTYLE
280
     0
  9
$LWDISPLAY
290
     1
  9
$INSUNITS
 70
     4
  9
$HYPERLINKBASE
  1

  9
$STYLESHEET
  1

  9
$XEDIT
290
     1
  9
$CEPSNTYPE
380
     0
  9
$PSTYLEMODE
290
     1
  9
$FINGERPRINTGUID
  2
{E92FFCDB-BC3F-4146-ACBB-A9B81A607A28}
  9
$VERSIONGUID
  2
{FAEB1C32-E019-11D5-929B-00C0DF256EC4}
  9
$EXTNAMES
290
     1
  9
$PSVPSCALE
 40
0.0
  9
$OLESTARTUP
290
     0
  0
ENDSEC
  0
SECTION
  2
CLASSES
  0
CLASS
  1
ACDBDICTIONARYWDFLT
  2
AcDbDictionaryWithDefault
  3
ObjectDBX Classes
 90
        0
280
     0
281
     0
  0
CLASS
  1
VISUALSTYLE
  2
AcDbVisualStyle
  3
ObjectDBX Classes
 90
     4095
280
     0
281
     0
  0
CLASS
  1
MATERIAL
  2
AcDbMaterial
  3
ObjectDBX Classes
 90
     1153
280
     0
281
     0
  0
CLASS
  1
ACDBPLACEHOLDER
  2
AcDbPlaceHolder
  3
ObjectDBX Classes
 90
        0
280
     0
281
     0
  0
CLASS
  1
LAYOUT
  2
AcDbLayout
  3
ObjectDBX Classes
 90
        0
280
     0
281
     0
  0
ENDSEC
  0
SECTION
  2
TABLES
  0
TABLE
  2
VPORT
  5
8
330
0
100
AcDbSymbolTable
 70
     1
  0
VPORT
  5
29
330
8
100
AcDbSymbolTableRecord
100
AcDbViewportTableRecord
  2
*Active
 70
     0
 10
0.0
 20
0.0
 11
1.0
 21
1.0
 12
105.0
 22
148.5
 13
0.0
 23
0.0
 14
10.0
 24
10.0
 15
10.0
 25
10.0
 16
0.0
 26
0.0
 36
1.0
 17
0.0
 27
0.0
 37
0.0
 40
297.0
 41
0.7070707071
 42
50.0
 43
0.0
 44
0.0
 50
0.0
 51
0.0
 71
     0
 72
  2000
 73
     1
 74
     3
 75
     0
 76
     0
 77
     0
 78
     0
281
     0
 65
     1
110
0.0
120
0.0
130
0.0
111
1.0
121
0.0
131
0.0
112
0.0
122
1.0
132
0.0
 79
     0
146
0.0
  0
ENDTAB
  0
TABLE
  2
LTYPE
  5
5
330
0
100
AcDbSymbolTable
 70
     6
  0
LTYPE
  5
14
330
5
100
AcDbSymbolTableRecord
100
AcDbLinetypeTableRecord
  2
ByBlock
 70
     0
  3

 72
    65
 73
     0
 40
0.0
  0
LTYPE
  5
15
330
5
100
AcDbSymbolTableRecord
100
AcDbLinetypeTableRecord
  2
ByLayer
 70
     0
  3

 72
    65
 73
     0
 40
0.0
  0
LTYPE
  5
16
330
5
100
AcDbSymbolTableRecord
100
AcDbLinetypeTableRecord
  2
Continuous
 70
     0
  3
Solid line
 72
    65
 73
     0
 40
0.0
  0
LTYPE
  5
3F
330
5
100
AcDbSymbolTableRecord
100
AcDbLinetypeTableRecord
  2
HIDDEN
 70
     0
  3
Hidden __ __ __ __ __ __ __ __ __ __ __ __ __ __
 72
    65
 73
     2
 40
1.905
 49
1.27
 74
     0
 49
-0.635
 74
     0
  0
LTYPE
  5
40
330
5
100
AcDbSymbolTableRecord
100
AcDbLinetypeTableRecord
  2
PHANTOM
 70
     0
  3
Phantom ______  __  __  ______  __  __  ______
 72
    65
 73
     6
 40
12.7
 49
6.35
 74
     0
 49
-1.27
 74
     0
 49
1.27
 74
     0
 49
-1.27
 74
     0
 49
1.27
 74
     0
 49
-1.27
 74
     0
  0
LTYPE
  5
41
330
5
100
AcDbSymbolTableRecord
100
AcDbLinetypeTableRecord
  2
CENTER
 70
     0
  3
Center ____ _ ____ _ ____ _ ____ _ ____ _ ____
 72
    65
 73
     4
 40
10.16
 49
6.35
 74
     0
 49
-1.27
 74
     0
 49
1.27
 74
     0
 49
-1.27
 74
     0
  0
LTYPE
  5
42
330
5
100
AcDbSymbolTableRecord
100
AcDbLinetypeTableRecord
  2
CENTERX2
 70
     0
  3
Center (2x) ________  __  ________  __  _____
 72
    65
 73
     4
 40
20.32
 49
12.7
 74
     0
 49
-2.54
 74
     0
 49
2.54
 74
     0
 49
-2.54
 74
     0
  0
LTYPE
  5
43
330
5
100
AcDbSymbolTableRecord
100
AcDbLinetypeTableRecord
  2
DOT2
 70
     0
  3
Dot (.5x) ........................................
 72
    65
 73
     2
 40
0.635
 49
0.0
 74
     0
 49
-0.635
 74
     0
  0
ENDTAB
  0
TABLE
  2
LAYER
  5
2
330
0
100
AcDbSymbolTable
 70
    26
  0
LAYER
  5
10
330
2
100
AcDbSymbolTableRecord
100
AcDbLayerTableRecord
  2
0
 70
     0
 62
     7
  6
Continuous
370
    -3
390
F
  0
LAYER
  5
44
330
2
100
AcDbSymbolTableRecord
100
AcDbLayerTableRecord
  2
SLD-0
 70
     0
 62
     1
  6
Continuous
370
    -3
390
F
  0
LAYER
  5
45
330
2
100
AcDbSymbolTableRecord
100
AcDbLayerTableRecord
  2
POČÁTEK
 70
     0
 62
    34
  6
Continuous
370
    -3
390
F
  0
LAYER
  5
46
330
2
100
AcDbSymbolTableRecord
100
AcDbLayerTableRecord
  2
OBRYS
 70
     0
 62
     7
  6
Continuous
370
    15
390
F
  0
LAYER
  5
47
330
2
100
AcDbSymbolTableRecord
100
AcDbLayerTableRecord
  2
SRAFY
 70
     0
 62
     2
  6
Continuous
370
    -1
390
F
  0
LAYER
  5
48
330
2
100
AcDbSymbolTableRecord
100
AcDbLayerTableRecord
  2
KOTY
 70
     0
 62
    82
  6
Continuous
370
    -3
390
F
  0
LAYER
  5
49
330
2
100
AcDbSymbolTableRecord
100
AcDbLayerTableRecord
  2
OSY
 70
     0
 62
     1
  6
CENTERX2
370
    -3
390
F
  0
LAYER
  5
4A
330
2
100
AcDbSymbolTableRecord
100
AcDbLayerTableRecord
  2
REZY
 70
     0
 62
     1
  6
CENTERX2
370
    -3
390
F
  0
LAYER
  5
4B
330
2
100
AcDbSymbolTableRecord
100
AcDbLayerTableRecord
  2
TENKA
 70
     0
 62
   131
  6
Continuous
370
    -3
390
F
  0
LAYER
  5
4C
330
2
100
AcDbSymbolTableRecord
100
AcDbLayerTableRecord
  2
TEXT
 70
     0
 62
    40
  6
Continuous
370
    -3
390
F
  0
LAYER
  5
4D
330
2
100
AcDbSymbolTableRecord
100
AcDbLayerTableRecord
  2
STŘEDOVÉ
 70
     0
 62
     1
  6
CENTERX2
370
    -3
390
F
  0
LAYER
  5
4E
330
2
100
AcDbSymbolTableRecord
100
AcDbLayerTableRecord
  2
OPRACOVÁNÍ
 70
     0
 62
   212
  6
Continuous
370
    -3
390
F
  0
LAYER
  5
4F
330
2
100
AcDbSymbolTableRecord
100
AcDbLayerTableRecord
  2
TABULKA
 70
     0
 62
    41
  6
Continuous
370
    -1
390
F
  0
LAYER
  5
50
330
2
100
AcDbSymbolTableRecord
100
AcDbLayerTableRecord
  2
GEOMETRICKÉ
 70
     0
 62
   212
  6
Continuous
370
    -3
390
F
  0
LAYER
  5
51
330
2
100
AcDbSymbolTableRecord
100
AcDbLayerTableRecord
  2
ČÁRY
 70
     0
 62
     2
  6
Continuous
370
    -3
390
F
  0
LAYER
  5
52
330
2
100
AcDbSymbolTableRecord
100
AcDbLayerTableRecord
  2
POPIS
 70
     0
 62
     3
  6
Continuous
370
    -1
390
F
  0
LAYER
  5
53
330
2
100
AcDbSymbolTableRecord
100
AcDbLayerTableRecord
  2
ZÁKLADNA
 70
     0
 62
   212
  6
Continuous
370
    -1
390
F
  0
LAYER
  5
54
330
2
100
AcDbSymbolTableRecord
100
AcDbLayerTableRecord
  2
STŘEDY
 70
     0
 62
     1
  6
CENTERX2
370
    -3
390
F
  0
LAYER
  5
55
330
2
100
AcDbSymbolTableRecord
100
AcDbLayerTableRecord
  2
KOLÍK
 70
     0
 62
     9
  6
Continuous
370
    -3
390
F
  0
LAYER
  5
56
330
2
100
AcDbSymbolTableRecord
100
AcDbLayerTableRecord
  2
PŘERUŠENÍ
 70
     0
 62
     4
  6
PHANTOM
370
    -3
390
F
  0
LAYER
  5
57
330
2
100
AcDbSymbolTableRecord
100
AcDbLayerTableRecord
  2
DETAIL
 70
     0
 62
     6
  6
Continuous
370
    -3
390
F
  0
LAYER
  5
58
330
2
100
AcDbSymbolTableRecord
100
AcDbLayerTableRecord
  2
ZÁVIT
 70
     0
 62
     2
  6
Continuous
370
    -3
390
F
  0
LAYER
  5
59
330
2
100
AcDbSymbolTableRecord
100
AcDbLayerTableRecord
  2
HRANICE
 70
     0
 62
     6
  6
Continuous
370
    -1
390
F
  0
LAYER
  5
5A
330
2
100
AcDbSymbolTableRecord
100
AcDbLayerTableRecord
  2
LOMENÉ
 70
     0
 62
     6
  6
Continuous
370
    -1
390
F
  0
LAYER
  5
5B
330
2
100
AcDbSymbolTableRecord
100
AcDbLayerTableRecord
  2
TEČNÉ
 70
     0
 62
     6
  6
Continuous
370
    -3
390
F
  0
LAYER
  5
5C
330
2
100
AcDbSymbolTableRecord
100
AcDbLayerTableRecord
  2
SKRYTE
 70
     0
 62
     4
  6
Continuous
370
    -3
390
F
  0
ENDTAB
  0
TABLE
  2
STYLE
  5
3
330
0
100
AcDbSymbolTable
 70
     2
  0
STYLE
  5
11
330
3
100
AcDbSymbolTableRecord
100
AcDbTextStyleTableRecord
  2
Standard
 70
     0
 40
0.0
 41
1.0
 50
0.0
 71
     0
 42
2.5
  3
txt
  4

  0
STYLE
  5
5D
330
3
100
AcDbSymbolTableRecord
100
AcDbTextStyleTableRecord
  2
SLDTEXTSTYLE0
 70
     0
 40
0.0
 41
0.75
 50
0.0
 71
     0
 42
0.2
  3
TXT
  4

  0
ENDTAB
  0
TABLE
  2
VIEW
  5
6
330
0
100
AcDbSymbolTable
 70
     0
  0
ENDTAB
  0
TABLE
  2
UCS
  5
7
330
0
100
AcDbSymbolTable
 70
     0
  0
ENDTAB
  0
TABLE
  2
APPID
  5
9
330
0
100
AcDbSymbolTable
 70
     1
  0
APPID
  5
12
330
9
100
AcDbSymbolTableRecord
100
AcDbRegAppTableRecord
  2
ACAD
 70
     0
  0
ENDTAB
  0
TABLE
  2
DIMSTYLE
  5
A
330
0
100
AcDbSymbolTable
 70
     4
100
AcDbDimStyleTable
  0
DIMSTYLE
105
27
330
A
100
AcDbSymbolTableRecord
100
AcDbDimStyleTableRecord
  2
ISO-25
 70
     0
 41
2.5
 42
0.625
 43
3.75
 44
1.25
 73
     0
 74
     0
 77
     1
 78
     8
140
2.5
141
2.5
143
0.0393700787
147
0.625
171
     3
172
     1
178
     0
271
     2
272
     2
274
     3
278
    44
283
     0
284
     8
340
11
  0
DIMSTYLE
105
CA
102
{ACAD_REACTORS
330
C9
330
F6
330
100
330
16C
330
18C
330
206
330
210
330
226
330
24C
102
}
330
A
100
AcDbSymbolTableRecord
100
AcDbDimStyleTableRecord
  2
SLDDIMSTYLE0
 70
     0
 41
2.5
 44
0.0
 45
0.000000001
 73
     0
 74
     0
 77
     1
 78
    12
 79
     3
140
2.5
147
0.625
173
     1
178
     0
271
     0
272
     2
276
     2
284
    12
340
5D
  0
DIMSTYLE
105
D5
102
{ACAD_REACTORS
330
D4
330
176
330
21A
102
}
330
A
100
AcDbSymbolTableRecord
100
AcDbDimStyleTableRecord
  2
SLDDIMSTYLE1
 70
     0
 41
2.5
 44
0.0
 45
0.000000001
 73
     0
 74
     0
 77
     1
 78
    12
 79
     3
140
2.5
147
0.625
172
     1
173
     1
178
     0
271
     0
272
     2
276
     2
284
    12
289
     0
340
5D
  0
DIMSTYLE
105
E2
102
{ACAD_REACTORS
330
E1
330
EC
330
182
330
230
330
23A
330
244
102
}
330
A
100
AcDbSymbolTableRecord
100
AcDbDimStyleTableRecord
  2
SLDDIMSTYLE2
 70
     0
 41
2.5
 44
0.0
 45
0.000000001
 73
     0
 74
     0
 77
     1
 78
    12
 79
     3
140
2.5
147
0.625
173
     1
178
     0
271
     1
272
     2
276
     2
284
    12
340
5D
  0
ENDTAB
  0
TABLE
  2
BLOCK_RECORD
  5
1
330
0
100
AcDbSymbolTable
 70
    19
  0
BLOCK_RECORD
  5
1F
330
1
100
AcDbSymbolTableRecord
100
AcDbBlockTableRecord
  2
*Model_Space
340
22
  0
BLOCK_RECORD
  5
1B
330
1
100
AcDbSymbolTableRecord
100
AcDbBlockTableRecord
  2
*Paper_Space
340
1E
  0
BLOCK_RECORD
  5
23
330
1
100
AcDbSymbolTableRecord
100
AcDbBlockTableRecord
  2
*Paper_Space0
340
26
  0
BLOCK_RECORD
  5
CB
330
1
100
AcDbSymbolTableRecord
100
AcDbBlockTableRecord
  2
*D1
340
0
  0
BLOCK_RECORD
  5
D6
330
1
100
AcDbSymbolTableRecord
100
AcDbBlockTableRecord
  2
*D2
340
0
  0
BLOCK_RECORD
  5
E3
330
1
100
AcDbSymbolTableRecord
100
AcDbBlockTableRecord
  2
*D3
340
0
  0
BLOCK_RECORD
  5
ED
330
1
100
AcDbSymbolTableRecord
100
AcDbBlockTableRecord
  2
*D4
340
0
  0
BLOCK_RECORD
  5
F7
330
1
100
AcDbSymbolTableRecord
100
AcDbBlockTableRecord
  2
*D5
340
0
  0
BLOCK_RECORD
  5
101
330
1
100
AcDbSymbolTableRecord
100
AcDbBlockTableRecord
  2
*D6
340
0
  0
BLOCK_RECORD
  5
16D
330
1
100
AcDbSymbolTableRecord
100
AcDbBlockTableRecord
  2
*D7
340
0
  0
BLOCK_RECORD
  5
177
330
1
100
AcDbSymbolTableRecord
100
AcDbBlockTableRecord
  2
*D8
340
0
  0
BLOCK_RECORD
  5
183
330
1
100
AcDbSymbolTableRecord
100
AcDbBlockTableRecord
  2
*D9
340
0
  0
BLOCK_RECORD
  5
18D
330
1
100
AcDbSymbolTableRecord
100
AcDbBlockTableRecord
  2
*D10
340
0
  0
BLOCK_RECORD
  5
207
330
1
100
AcDbSymbolTableRecord
100
AcDbBlockTableRecord
  2
*D11
340
0
  0
BLOCK_RECORD
  5
211
330
1
100
AcDbSymbolTableRecord
100
AcDbBlockTableRecord
  2
*D12
340
0
  0
BLOCK_RECORD
  5
21B
330
1
100
AcDbSymbolTableRecord
100
AcDbBlockTableRecord
  2
*D13
340
0
  0
BLOCK_RECORD
  5
227
330
1
100
AcDbSymbolTableRecord
100
AcDbBlockTableRecord
  2
*D14
340
0
  0
BLOCK_RECORD
  5
231
330
1
100
AcDbSymbolTableRecord
100
AcDbBlockTableRecord
  2
*D15
340
0
  0
BLOCK_RECORD
  5
23B
330
1
100
AcDbSymbolTableRecord
100
AcDbBlockTableRecord
  2
*D16
340
0
  0
BLOCK_RECORD
  5
245
330
1
100
AcDbSymbolTableRecord
100
AcDbBlockTableRecord
  2
*D17
340
0
  0
BLOCK_RECORD
  5
24D
330
1
100
AcDbSymbolTableRecord
100
AcDbBlockTableRecord
  2
*D18
340
0
  0
ENDTAB
  0
ENDSEC
  0
SECTION
  2
BLOCKS
  0
BLOCK
  5
20
330
1F
100
AcDbEntity
  8
0
100
AcDbBlockBegin
  2
*Model_Space
 70
     0
 10
0.0
 20
0.0
 30
0.0
  3
*Model_Space
  1

  0
ENDBLK
  5
21
330
1F
100
AcDbEntity
  8
0
100
AcDbBlockEnd
  0
BLOCK
  5
1C
330
1B
100
AcDbEntity
 67
     1
  8
0
100
AcDbBlockBegin
  2
*Paper_Space
 70
     0
 10
0.0
 20
0.0
 30
0.0
  3
*Paper_Space
  1

  0
ENDBLK
  5
1D
330
1B
100
AcDbEntity
 67
     1
  8
0
100
AcDbBlockEnd
  0
BLOCK
  5
24
330
23
100
AcDbEntity
  8
0
100
AcDbBlockBegin
  2
*Paper_Space0
 70
     0
 10
0.0
 20
0.0
 30
0.0
  3
*Paper_Space0
  1

  0
ENDBLK
  5
25
330
23
100
AcDbEntity
  8
0
100
AcDbBlockEnd
  0
BLOCK
  5
CC
330
CB
100
AcDbEntity
  8
0
100
AcDbBlockBegin
  2
*D1
 70
     1
 10
0.0
 20
0.0
 30
0.0
  3
*D1
  1

  0
SOLID
  5
CE
330
CB
100
AcDbEntity
  8
KOTY
100
AcDbTrace
 10
36.8288659794
 20
271.4970103093
 30
0.0
 11
39.3288659794
 21
271.1123949247
 31
0.0
 12
39.3288659794
 22
271.8816256939
 32
0.0
 13
39.3288659794
 23
271.8816256939
 33
0.0
  0
SOLID
  5
CF
330
CB
100
AcDbEntity
  8
KOTY
100
AcDbTrace
 10
58.8288659794
 20
271.4970103093
 30
0.0
 11
56.3288659794
 21
271.8816256939
 31
0.0
 12
56.3288659794
 22
271.1123949247
 32
0.0
 13
56.3288659794
 23
271.1123949247
 33
0.0
  0
LINE
  5
D0
330
CB
100
AcDbEntity
  8
KOTY
100
AcDbLine
 10
36.8288659794
 20
258.9970103093
 30
0.0
 11
36.8288659794
 21
272.4970103093
 31
0.0
  0
LINE
  5
D1
330
CB
100
AcDbEntity
  8
KOTY
100
AcDbLine
 10
58.8288659794
 20
258.9970103093
 30
0.0
 11
58.8288659794
 21
272.4970103093
 31
0.0
  0
LINE
  5
D2
330
CB
100
AcDbEntity
  8
KOTY
100
AcDbLine
 10
36.8288659794
 20
271.4970103093
 30
0.0
 11
58.8288659794
 21
271.4970103093
 31
0.0
  0
MTEXT
  5
D3
330
CB
100
AcDbEntity
  8
KOTY
100
AcDbMText
 10
44.9660185692
 20
274.7196796005
 30
-49.9
 40
2.5
 41
0.0
 71
     1
 72
     1
  1
22
  7
SLDTEXTSTYLE0
 73
     1
 44
1.0
  0
ENDBLK
  5
CD
330
CB
100
AcDbEntity
  8
0
100
AcDbBlockEnd
  0
BLOCK
  5
D7
330
D6
100
AcDbEntity
  8
0
100
AcDbBlockBegin
  2
*D2
 70
     1
 10
0.0
 20
0.0
 30
0.0
  3
*D2
  1

  0
SOLID
  5
D9
330
D6
100
AcDbEntity
  8
KOTY
100
AcDbTrace
 10
40.3288659794
 20
265.4970103093
 30
0.0
 11
37.8288659794
 21
265.8816256939
 31
0.0
 12
37.8288659794
 22
265.1123949247
 32
0.0
 13
37.8288659794
 23
265.1123949247
 33
0.0
  0
SOLID
  5
DA
330
D6
100
AcDbEntity
  8
KOTY
100
AcDbTrace
 10
55.3288659794
 20
265.4970103093
 30
0.0
 11
57.8288659794
 21
265.1123949247
 31
0.0
 12
57.8288659794
 22
265.8816256939
 32
0.0
 13
57.8288659794
 23
265.8816256939
 33
0.0
  0
LINE
  5
DB
330
D6
100
AcDbEntity
  8
KOTY
100
AcDbLine
 10
40.3288659794
 20
258.9970103093
 30
0.0
 11
40.3288659794
 21
266.4970103093
 31
0.0
  0
LINE
  5
DC
330
D6
100
AcDbEntity
  8
KOTY
100
AcDbLine
 10
55.3288659794
 20
258.9970103093
 30
0.0
 11
55.3288659794
 21
266.4970103093
 31
0.0
  0
LINE
  5
DD
330
D6
100
AcDbEntity
  8
KOTY
100
AcDbLine
 10
40.3288659794
 20
265.4970103093
 30
0.0
 11
35.5211736717
 21
265.4970103093
 31
0.0
  0
LINE
  5
DE
330
D6
100
AcDbEntity
  8
KOTY
100
AcDbLine
 10
40.3288659794
 20
265.4970103093
 30
0.0
 11
55.3288659794
 21
265.4970103093
 31
0.0
  0
LINE
  5
DF
330
D6
100
AcDbEntity
  8
KOTY
100
AcDbLine
 10
55.3288659794
 20
265.4970103093
 30
0.0
 11
60.1365582871
 21
265.4970103093
 31
0.0
  0
MTEXT
  5
E0
330
D6
100
AcDbEntity
  8
KOTY
100
AcDbMText
 10
44.9660185692
 20
268.7196796005
 30
-49.9
 40
2.5
 41
0.0
 71
     1
 72
     1
  1
15
  7
SLDTEXTSTYLE0
 73
     1
 44
1.0
  0
ENDBLK
  5
D8
330
D6
100
AcDbEntity
  8
0
100
AcDbBlockEnd
  0
BLOCK
  5
E4
330
E3
100
AcDbEntity
  8
0
100
AcDbBlockBegin
  2
*D3
 70
     1
 10
0.0
 20
0.0
 30
0.0
  3
*D3
  1

  0
SOLID
  5
E6
330
E3
100
AcDbEntity
  8
KOTY
100
AcDbTrace
 10
30.8288659794
 20
259.4970103093
 30
0.0
 11
30.4442505948
 21
256.9970103093
 31
0.0
 12
31.213481364
 22
256.9970103093
 32
0.0
 13
31.213481364
 23
256.9970103093
 33
0.0
  0
SOLID
  5
E7
330
E3
100
AcDbEntity
  8
KOTY
100
AcDbTrace
 10
30.8288659794
 20
233.2970103093
 30
0.0
 11
31.213481364
 21
235.7970103093
 31
0.0
 12
30.4442505948
 22
235.7970103093
 32
0.0
 13
30.4442505948
 23
235.7970103093
 33
0.0
  0
LINE
  5
E8
330
E3
100
AcDbEntity
  8
KOTY
100
AcDbLine
 10
37.3288659794
 20
259.4970103093
 30
0.0
 11
29.8288659794
 21
259.4970103093
 31
0.0
  0
LINE
  5
E9
330
E3
100
AcDbEntity
  8
KOTY
100
AcDbLine
 10
38.0288659794
 20
233.2970103093
 30
0.0
 11
29.8288659794
 21
233.2970103093
 31
0.0
  0
LINE
  5
EA
330
E3
100
AcDbEntity
  8
KOTY
100
AcDbLine
 10
30.8288659794
 20
259.4970103093
 30
0.0
 11
30.8288659794
 21
233.2970103093
 31
0.0
  0
MTEXT
  5
EB
330
E3
100
AcDbEntity
  8
KOTY
100
AcDbMText
 10
27.6061966882
 20
242.1487465293
 30
-49.9
 40
2.5
 41
0.0
 71
     1
 72
     1
  1
26,2
  7
SLDTEXTSTYLE0
 11
-7.044195017643634E-15
 21
1.0
 31
0.0
 73
     1
 44
1.0
  0
ENDBLK
  5
E5
330
E3
100
AcDbEntity
  8
0
100
AcDbBlockEnd
  0
BLOCK
  5
EE
330
ED
100
AcDbEntity
  8
0
100
AcDbBlockBegin
  2
*D4
 70
     1
 10
0.0
 20
0.0
 30
0.0
  3
*D4
  1

  0
SOLID
  5
F0
330
ED
100
AcDbEntity
  8
KOTY
100
AcDbTrace
 10
30.8288659794
 20
232.1970103093
 30
0.0
 11
30.4442505948
 21
229.6970103093
 31
0.0
 12
31.213481364
 22
229.6970103093
 32
0.0
 13
31.213481364
 23
229.6970103093
 33
0.0
  0
SOLID
  5
F1
330
ED
100
AcDbEntity
  8
KOTY
100
AcDbTrace
 10
30.8288659794
 20
207.6970103093
 30
0.0
 11
31.213481364
 21
210.1970103093
 31
0.0
 12
30.4442505948
 22
210.1970103093
 32
0.0
 13
30.4442505948
 23
210.1970103093
 33
0.0
  0
LINE
  5
F2
330
ED
100
AcDbEntity
  8
KOTY
100
AcDbLine
 10
38.0288659794
 20
232.1970103093
 30
0.0
 11
29.8288659794
 21
232.1970103093
 31
0.0
  0
LINE
  5
F3
330
ED
100
AcDbEntity
  8
KOTY
100
AcDbLine
 10
38.0288659794
 20
207.6970103093
 30
0.0
 11
29.8288659794
 21
207.6970103093
 31
0.0
  0
LINE
  5
F4
330
ED
100
AcDbEntity
  8
KOTY
100
AcDbLine
 10
30.8288659794
 20
232.1970103093
 30
0.0
 11
30.8288659794
 21
207.6970103093
 31
0.0
  0
MTEXT
  5
F5
330
ED
100
AcDbEntity
  8
KOTY
100
AcDbMText
 10
27.6061966882
 20
215.6987465293
 30
-49.9
 40
2.5
 41
0.0
 71
     1
 72
     1
  1
24,5
  7
SLDTEXTSTYLE0
 11
-7.044195017643634E-15
 21
1.0
 31
0.0
 73
     1
 44
1.0
  0
ENDBLK
  5
EF
330
ED
100
AcDbEntity
  8
0
100
AcDbBlockEnd
  0
BLOCK
  5
F8
330
F7
100
AcDbEntity
  8
0
100
AcDbBlockBegin
  2
*D5
 70
     1
 10
0.0
 20
0.0
 30
0.0
  3
*D5
  1

  0
SOLID
  5
FA
330
F7
100
AcDbEntity
  8
KOTY
100
AcDbTrace
 10
24.8288659794
 20
259.4970103093
 30
0.0
 11
24.4442505948
 21
256.9970103093
 31
0.0
 12
25.213481364
 22
256.9970103093
 32
0.0
 13
25.213481364
 23
256.9970103093
 33
0.0
  0
SOLID
  5
FB
330
F7
100
AcDbEntity
  8
KOTY
100
AcDbTrace
 10
24.8288659794
 20
206.4970103093
 30
0.0
 11
25.213481364
 21
208.9970103093
 31
0.0
 12
24.4442505948
 22
208.9970103093
 32
0.0
 13
24.4442505948
 23
208.9970103093
 33
0.0
  0
LINE
  5
FC
330
F7
100
AcDbEntity
  8
KOTY
100
AcDbLine
 10
37.3288659794
 20
259.4970103093
 30
0.0
 11
23.8288659794
 21
259.4970103093
 31
0.0
  0
LINE
  5
FD
330
F7
100
AcDbEntity
  8
KOTY
100
AcDbLine
 10
37.3288659794
 20
206.4970103093
 30
0.0
 11
23.8288659794
 21
206.4970103093
 31
0.0
  0
LINE
  5
FE
330
F7
100
AcDbEntity
  8
KOTY
100
AcDbLine
 10
24.8288659794
 20
259.4970103093
 30
0.0
 11
24.8288659794
 21
206.4970103093
 31
0.0
  0
MTEXT
  5
FF
330
F7
100
AcDbEntity
  8
KOTY
100
AcDbMText
 10
21.6061966882
 20
230.1341628991
 30
-49.9
 40
2.5
 41
0.0
 71
     1
 72
     1
  1
53
  7
SLDTEXTSTYLE0
 11
-7.044195017643634E-15
 21
1.0
 31
0.0
 73
     1
 44
1.0
  0
ENDBLK
  5
F9
330
F7
100
AcDbEntity
  8
0
100
AcDbBlockEnd
  0
BLOCK
  5
102
330
101
100
AcDbEntity
  8
0
100
AcDbBlockBegin
  2
*D6
 70
     1
 10
0.0
 20
0.0
 30
0.0
  3
*D6
  1

  0
SOLID
  5
104
330
101
100
AcDbEntity
  8
KOTY
100
AcDbTrace
 10
36.8288659794
 20
200.4970103093
 30
0.0
 11
39.3288659794
 21
200.1123949247
 31
0.0
 12
39.3288659794
 22
200.8816256939
 32
0.0
 13
39.3288659794
 23
200.8816256939
 33
0.0
  0
SOLID
  5
105
330
101
100
AcDbEntity
  8
KOTY
100
AcDbTrace
 10
96.8288659794
 20
200.4970103093
 30
0.0
 11
94.3288659794
 21
200.8816256939
 31
0.0
 12
94.3288659794
 22
200.1123949247
 32
0.0
 13
94.3288659794
 23
200.1123949247
 33
0.0
  0
LINE
  5
106
330
101
100
AcDbEntity
  8
KOTY
100
AcDbLine
 10
36.8288659794
 20
206.9970103093
 30
0.0
 11
36.8288659794
 21
199.4970103093
 31
0.0
  0
LINE
  5
107
330
101
100
AcDbEntity
  8
KOTY
100
AcDbLine
 10
96.8288659794
 20
206.9970103093
 30
0.0
 11
96.8288659794
 21
199.4970103093
 31
0.0
  0
LINE
  5
108
330
101
100
AcDbEntity
  8
KOTY
100
AcDbLine
 10
36.8288659794
 20
200.4970103093
 30
0.0
 11
96.8288659794
 21
200.4970103093
 31
0.0
  0
MTEXT
  5
109
330
101
100
AcDbEntity
  8
KOTY
100
AcDbMText
 10
63.9660185692
 20
203.7196796005
 30
-49.9
 40
2.5
 41
0.0
 71
     1
 72
     1
  1
60
  7
SLDTEXTSTYLE0
 73
     1
 44
1.0
  0
ENDBLK
  5
103
330
101
100
AcDbEntity
  8
0
100
AcDbBlockEnd
  0
BLOCK
  5
16E
330
16D
100
AcDbEntity
  8
0
100
AcDbBlockBegin
  2
*D7
 70
     1
 10
0.0
 20
0.0
 30
0.0
  3
*D7
  1

  0
SOLID
  5
170
330
16D
100
AcDbEntity
  8
KOTY
100
AcDbTrace
 10
139.6866620269
 20
169.6393827364
 30
0.0
 11
142.1866620269
 21
169.2547673518
 31
0.0
 12
142.1866620269
 22
170.0239981211
 32
0.0
 13
142.1866620269
 23
170.0239981211
 33
0.0
  0
SOLID
  5
171
330
16D
100
AcDbEntity
  8
KOTY
100
AcDbTrace
 10
161.6866620269
 20
169.6393827364
 30
0.0
 11
159.1866620269
 21
170.0239981211
 31
0.0
 12
159.1866620269
 22
169.2547673518
 32
0.0
 13
159.1866620269
 23
169.2547673518
 33
0.0
  0
LINE
  5
172
330
16D
100
AcDbEntity
  8
KOTY
100
AcDbLine
 10
139.6866620269
 20
157.1393827364
 30
0.0
 11
139.6866620269
 21
170.6393827364
 31
0.0
  0
LINE
  5
173
330
16D
100
AcDbEntity
  8
KOTY
100
AcDbLine
 10
161.6866620269
 20
157.1393827364
 30
0.0
 11
161.6866620269
 21
170.6393827364
 31
0.0
  0
LINE
  5
174
330
16D
100
AcDbEntity
  8
KOTY
100
AcDbLine
 10
139.6866620269
 20
169.6393827364
 30
0.0
 11
161.6866620269
 21
169.6393827364
 31
0.0
  0
MTEXT
  5
175
330
16D
100
AcDbEntity
  8
KOTY
100
AcDbMText
 10
147.8238146167
 20
172.8620520277
 30
-49.9
 40
2.5
 41
0.0
 71
     1
 72
     1
  1
22
  7
SLDTEXTSTYLE0
 73
     1
 44
1.0
  0
ENDBLK
  5
16F
330
16D
100
AcDbEntity
  8
0
100
AcDbBlockEnd
  0
BLOCK
  5
178
330
177
100
AcDbEntity
  8
0
100
AcDbBlockBegin
  2
*D8
 70
     1
 10
0.0
 20
0.0
 30
0.0
  3
*D8
  1

  0
SOLID
  5
17A
330
177
100
AcDbEntity
  8
KOTY
100
AcDbTrace
 10
143.1866620269
 20
163.6393827364
 30
0.0
 11
140.6866620269
 21
164.0239981211
 31
0.0
 12
140.6866620269
 22
163.2547673518
 32
0.0
 13
140.6866620269
 23
163.2547673518
 33
0.0
  0
SOLID
  5
17B
330
177
100
AcDbEntity
  8
KOTY
100
AcDbTrace
 10
158.1866620269
 20
163.6393827364
 30
0.0
 11
160.6866620269
 21
163.2547673518
 31
0.0
 12
160.6866620269
 22
164.0239981211
 32
0.0
 13
160.6866620269
 23
164.0239981211
 33
0.0
  0
LINE
  5
17C
330
177
100
AcDbEntity
  8
KOTY
100
AcDbLine
 10
143.1866620269
 20
157.1393827364
 30
0.0
 11
143.1866620269
 21
164.6393827364
 31
0.0
  0
LINE
  5
17D
330
177
100
AcDbEntity
  8
KOTY
100
AcDbLine
 10
158.1866620269
 20
157.1393827364
 30
0.0
 11
158.1866620269
 21
164.6393827364
 31
0.0
  0
LINE
  5
17E
330
177
100
AcDbEntity
  8
KOTY
100
AcDbLine
 10
143.1866620269
 20
163.6393827364
 30
0.0
 11
138.3789697192
 21
163.6393827364
 31
0.0
  0
LINE
  5
17F
330
177
100
AcDbEntity
  8
KOTY
100
AcDbLine
 10
143.1866620269
 20
163.6393827364
 30
0.0
 11
158.1866620269
 21
163.6393827364
 31
0.0
  0
LINE
  5
180
330
177
100
AcDbEntity
  8
KOTY
100
AcDbLine
 10
158.1866620269
 20
163.6393827364
 30
0.0
 11
162.9943543346
 21
163.6393827364
 31
0.0
  0
MTEXT
  5
181
330
177
100
AcDbEntity
  8
KOTY
100
AcDbMText
 10
147.8238146167
 20
166.8620520277
 30
-49.9
 40
2.5
 41
0.0
 71
     1
 72
     1
  1
15
  7
SLDTEXTSTYLE0
 73
     1
 44
1.0
  0
ENDBLK
  5
179
330
177
100
AcDbEntity
  8
0
100
AcDbBlockEnd
  0
BLOCK
  5
184
330
183
100
AcDbEntity
  8
0
100
AcDbBlockBegin
  2
*D9
 70
     1
 10
0.0
 20
0.0
 30
0.0
  3
*D9
  1

  0
SOLID
  5
186
330
183
100
AcDbEntity
  8
KOTY
100
AcDbTrace
 10
133.6866620269
 20
157.6393827364
 30
0.0
 11
133.3020466423
 21
155.1393827364
 31
0.0
 12
134.0712774115
 22
155.1393827364
 32
0.0
 13
134.0712774115
 23
155.1393827364
 33
0.0
  0
SOLID
  5
187
330
183
100
AcDbEntity
  8
KOTY
100
AcDbTrace
 10
133.6866620269
 20
139.4393827364
 30
0.0
 11
134.0712774115
 21
141.9393827364
 31
0.0
 12
133.3020466423
 22
141.9393827364
 32
0.0
 13
133.3020466423
 23
141.9393827364
 33
0.0
  0
LINE
  5
188
330
183
100
AcDbEntity
  8
KOTY
100
AcDbLine
 10
140.1866620269
 20
157.6393827364
 30
0.0
 11
132.6866620269
 21
157.6393827364
 31
0.0
  0
LINE
  5
189
330
183
100
AcDbEntity
  8
KOTY
100
AcDbLine
 10
140.8866620269
 20
139.4393827364
 30
0.0
 11
132.6866620269
 21
139.4393827364
 31
0.0
  0
LINE
  5
18A
330
183
100
AcDbEntity
  8
KOTY
100
AcDbLine
 10
133.6866620269
 20
157.6393827364
 30
0.0
 11
133.6866620269
 21
139.4393827364
 31
0.0
  0
MTEXT
  5
18B
330
183
100
AcDbEntity
  8
KOTY
100
AcDbMText
 10
130.4639927357
 20
144.2911189564
 30
-49.9
 40
2.5
 41
0.0
 71
     1
 72
     1
  1
18,2
  7
SLDTEXTSTYLE0
 11
-6.156016597943509E-15
 21
1.0
 31
0.0
 73
     1
 44
1.0
  0
ENDBLK
  5
185
330
183
100
AcDbEntity
  8
0
100
AcDbBlockEnd
  0
BLOCK
  5
18E
330
18D
100
AcDbEntity
  8
0
100
AcDbBlockBegin
  2
*D10
 70
     1
 10
0.0
 20
0.0
 30
0.0
  3
*D10
  1

  0
SOLID
  5
190
330
18D
100
AcDbEntity
  8
KOTY
100
AcDbTrace
 10
127.6866620269
 20
157.6393827364
 30
0.0
 11
127.3020466423
 21
155.1393827364
 31
0.0
 12
128.0712774115
 22
155.1393827364
 32
0.0
 13
128.0712774115
 23
155.1393827364
 33
0.0
  0
SOLID
  5
191
330
18D
100
AcDbEntity
  8
KOTY
100
AcDbTrace
 10
127.6866620269
 20
112.6393827364
 30
0.0
 11
128.0712774115
 21
115.1393827364
 31
0.0
 12
127.3020466423
 22
115.1393827364
 32
0.0
 13
127.3020466423
 23
115.1393827364
 33
0.0
  0
LINE
  5
192
330
18D
100
AcDbEntity
  8
KOTY
100
AcDbLine
 10
140.1866620269
 20
157.6393827364
 30
0.0
 11
126.6866620269
 21
157.6393827364
 31
0.0
  0
LINE
  5
193
330
18D
100
AcDbEntity
  8
KOTY
100
AcDbLine
 10
139.6866620269
 20
112.6393827364
 30
0.0
 11
126.6866620269
 21
112.6393827364
 31
0.0
  0
LINE
  5
194
330
18D
100
AcDbEntity
  8
KOTY
100
AcDbLine
 10
127.6866620269
 20
157.6393827364
 30
0.0
 11
127.6866620269
 21
112.6393827364
 31
0.0
  0
MTEXT
  5
195
330
18D
100
AcDbEntity
  8
KOTY
100
AcDbMText
 10
124.4639927357
 20
132.2765353263
 30
-49.9
 40
2.5
 41
0.0
 71
     1
 72
     1
  1
45
  7
SLDTEXTSTYLE0
 11
-7.044195017643634E-15
 21
1.0
 31
0.0
 73
     1
 44
1.0
  0
ENDBLK
  5
18F
330
18D
100
AcDbEntity
  8
0
100
AcDbBlockEnd
  0
BLOCK
  5
208
330
207
100
AcDbEntity
  8
0
100
AcDbBlockBegin
  2
*D11
 70
     1
 10
0.0
 20
0.0
 30
0.0
  3
*D11
  1

  0
SOLID
  5
20A
330
207
100
AcDbEntity
  8
KOTY
100
AcDbTrace
 10
75.847628866
 20
21.7867010309
 30
0.0
 11
73.347628866
 21
22.1713164155
 31
0.0
 12
73.347628866
 22
21.4020856463
 32
0.0
 13
73.347628866
 23
21.4020856463
 33
0.0
  0
SOLID
  5
20B
330
207
100
AcDbEntity
  8
KOTY
100
AcDbTrace
 10
41.847628866
 20
21.7867010309
 30
0.0
 11
44.347628866
 21
21.4020856463
 31
0.0
 12
44.347628866
 22
22.1713164155
 32
0.0
 13
44.347628866
 23
22.1713164155
 33
0.0
  0
LINE
  5
20C
330
207
100
AcDbEntity
  8
KOTY
100
AcDbLine
 10
75.847628866
 20
28.2867010309
 30
0.0
 11
75.847628866
 21
20.7867010309
 31
0.0
  0
LINE
  5
20D
330
207
100
AcDbEntity
  8
KOTY
100
AcDbLine
 10
41.847628866
 20
28.2867010309
 30
0.0
 11
41.847628866
 21
20.7867010309
 31
0.0
  0
LINE
  5
20E
330
207
100
AcDbEntity
  8
KOTY
100
AcDbLine
 10
75.847628866
 20
21.7867010309
 30
0.0
 11
41.847628866
 21
21.7867010309
 31
0.0
  0
MTEXT
  5
20F
330
207
100
AcDbEntity
  8
KOTY
100
AcDbMText
 10
55.9847814558
 20
25.0093703222
 30
-49.9
 40
2.5
 41
0.0
 71
     1
 72
     1
  1
34
  7
SLDTEXTSTYLE0
 73
     1
 44
1.0
  0
ENDBLK
  5
209
330
207
100
AcDbEntity
  8
0
100
AcDbBlockEnd
  0
BLOCK
  5
212
330
211
100
AcDbEntity
  8
0
100
AcDbBlockBegin
  2
*D12
 70
     1
 10
0.0
 20
0.0
 30
0.0
  3
*D12
  1

  0
SOLID
  5
214
330
211
100
AcDbEntity
  8
KOTY
100
AcDbTrace
 10
41.847628866
 20
92.7867010309
 30
0.0
 11
44.347628866
 21
92.4020856463
 31
0.0
 12
44.347628866
 22
93.1713164155
 32
0.0
 13
44.347628866
 23
93.1713164155
 33
0.0
  0
SOLID
  5
215
330
211
100
AcDbEntity
  8
KOTY
100
AcDbTrace
 10
63.847628866
 20
92.7867010309
 30
0.0
 11
61.347628866
 21
93.1713164155
 31
0.0
 12
61.347628866
 22
92.4020856463
 32
0.0
 13
61.347628866
 23
92.4020856463
 33
0.0
  0
LINE
  5
216
330
211
100
AcDbEntity
  8
KOTY
100
AcDbLine
 10
41.847628866
 20
80.2867010309
 30
0.0
 11
41.847628866
 21
93.7867010309
 31
0.0
  0
LINE
  5
217
330
211
100
AcDbEntity
  8
KOTY
100
AcDbLine
 10
63.847628866
 20
79.4367010309
 30
0.0
 11
63.847628866
 21
93.7867010309
 31
0.0
  0
LINE
  5
218
330
211
100
AcDbEntity
  8
KOTY
100
AcDbLine
 10
41.847628866
 20
92.7867010309
 30
0.0
 11
63.847628866
 21
92.7867010309
 31
0.0
  0
MTEXT
  5
219
330
211
100
AcDbEntity
  8
KOTY
100
AcDbMText
 10
49.9847814558
 20
96.0093703221
 30
-49.9
 40
2.5
 41
0.0
 71
     1
 72
     1
  1
22
  7
SLDTEXTSTYLE0
 73
     1
 44
1.0
  0
ENDBLK
  5
213
330
211
100
AcDbEntity
  8
0
100
AcDbBlockEnd
  0
BLOCK
  5
21C
330
21B
100
AcDbEntity
  8
0
100
AcDbBlockBegin
  2
*D13
 70
     1
 10
0.0
 20
0.0
 30
0.0
  3
*D13
  1

  0
SOLID
  5
21E
330
21B
100
AcDbEntity
  8
KOTY
100
AcDbTrace
 10
60.347628866
 20
86.7867010309
 30
0.0
 11
62.847628866
 21
86.4020856463
 31
0.0
 12
62.847628866
 22
87.1713164155
 32
0.0
 13
62.847628866
 23
87.1713164155
 33
0.0
  0
SOLID
  5
21F
330
21B
100
AcDbEntity
  8
KOTY
100
AcDbTrace
 10
45.347628866
 20
86.7867010309
 30
0.0
 11
42.847628866
 21
87.1713164155
 31
0.0
 12
42.847628866
 22
86.4020856463
 32
0.0
 13
42.847628866
 23
86.4020856463
 33
0.0
  0
LINE
  5
220
330
21B
100
AcDbEntity
  8
KOTY
100
AcDbLine
 10
60.347628866
 20
80.2867010309
 30
0.0
 11
60.347628866
 21
87.7867010309
 31
0.0
  0
LINE
  5
221
330
21B
100
AcDbEntity
  8
KOTY
100
AcDbLine
 10
45.347628866
 20
80.2867010309
 30
0.0
 11
45.347628866
 21
87.7867010309
 31
0.0
  0
LINE
  5
222
330
21B
100
AcDbEntity
  8
KOTY
100
AcDbLine
 10
60.347628866
 20
86.7867010309
 30
0.0
 11
65.1553211737
 21
86.7867010309
 31
0.0
  0
LINE
  5
223
330
21B
100
AcDbEntity
  8
KOTY
100
AcDbLine
 10
60.347628866
 20
86.7867010309
 30
0.0
 11
45.347628866
 21
86.7867010309
 31
0.0
  0
LINE
  5
224
330
21B
100
AcDbEntity
  8
KOTY
100
AcDbLine
 10
45.347628866
 20
86.7867010309
 30
0.0
 11
40.5399365583
 21
86.7867010309
 31
0.0
  0
MTEXT
  5
225
330
21B
100
AcDbEntity
  8
KOTY
100
AcDbMText
 10
49.9847814558
 20
90.0093703222
 30
-49.9
 40
2.5
 41
0.0
 71
     1
 72
     1
  1
15
  7
SLDTEXTSTYLE0
 73
     1
 44
1.0
  0
ENDBLK
  5
21D
330
21B
100
AcDbEntity
  8
0
100
AcDbBlockEnd
  0
BLOCK
  5
228
330
227
100
AcDbEntity
  8
0
100
AcDbBlockBegin
  2
*D14
 70
     1
 10
0.0
 20
0.0
 30
0.0
  3
*D14
  1

  0
SOLID
  5
22A
330
227
100
AcDbEntity
  8
KOTY
100
AcDbTrace
 10
29.847628866
 20
80.7867010309
 30
0.0
 11
29.4630134814
 21
78.2867010309
 31
0.0
 12
30.2322442506
 22
78.2867010309
 32
0.0
 13
30.2322442506
 23
78.2867010309
 33
0.0
  0
SOLID
  5
22B
330
227
100
AcDbEntity
  8
KOTY
100
AcDbTrace
 10
29.847628866
 20
27.7867010309
 30
0.0
 11
30.2322442506
 21
30.2867010309
 31
0.0
 12
29.4630134814
 22
30.2867010309
 32
0.0
 13
29.4630134814
 23
30.2867010309
 33
0.0
  0
LINE
  5
22C
330
227
100
AcDbEntity
  8
KOTY
100
AcDbLine
 10
42.347628866
 20
80.7867010309
 30
0.0
 11
28.847628866
 21
80.7867010309
 31
0.0
  0
LINE
  5
22D
330
227
100
AcDbEntity
  8
KOTY
100
AcDbLine
 10
42.347628866
 20
27.7867010309
 30
0.0
 11
28.847628866
 21
27.7867010309
 31
0.0
  0
LINE
  5
22E
330
227
100
AcDbEntity
  8
KOTY
100
AcDbLine
 10
29.847628866
 20
80.7867010309
 30
0.0
 11
29.847628866
 21
27.7867010309
 31
0.0
  0
MTEXT
  5
22F
330
227
100
AcDbEntity
  8
KOTY
100
AcDbMText
 10
26.6249595748
 20
51.4238536208
 30
-49.9
 40
2.5
 41
0.0
 71
     1
 72
     1
  1
53
  7
SLDTEXTSTYLE0
 11
-7.044195017643634E-15
 21
1.0
 31
0.0
 73
     1
 44
1.0
  0
ENDBLK
  5
229
330
227
100
AcDbEntity
  8
0
100
AcDbBlockEnd
  0
BLOCK
  5
232
330
231
100
AcDbEntity
  8
0
100
AcDbBlockBegin
  2
*D15
 70
     1
 10
0.0
 20
0.0
 30
0.0
  3
*D15
  1

  0
SOLID
  5
234
330
231
100
AcDbEntity
  8
KOTY
100
AcDbTrace
 10
35.847628866
 20
80.7867010309
 30
0.0
 11
35.4630134814
 21
78.2867010309
 31
0.0
 12
36.2322442506
 22
78.2867010309
 32
0.0
 13
36.2322442506
 23
78.2867010309
 33
0.0
  0
SOLID
  5
235
330
231
100
AcDbEntity
  8
KOTY
100
AcDbTrace
 10
35.847628866
 20
54.5867010309
 30
0.0
 11
36.2322442506
 21
57.0867010309
 31
0.0
 12
35.4630134814
 22
57.0867010309
 32
0.0
 13
35.4630134814
 23
57.0867010309
 33
0.0
  0
LINE
  5
236
330
231
100
AcDbEntity
  8
KOTY
100
AcDbLine
 10
42.347628866
 20
80.7867010309
 30
0.0
 11
34.847628866
 21
80.7867010309
 31
0.0
  0
LINE
  5
237
330
231
100
AcDbEntity
  8
KOTY
100
AcDbLine
 10
43.047628866
 20
54.5867010309
 30
0.0
 11
34.847628866
 21
54.5867010309
 31
0.0
  0
LINE
  5
238
330
231
100
AcDbEntity
  8
KOTY
100
AcDbLine
 10
35.847628866
 20
80.7867010309
 30
0.0
 11
35.847628866
 21
54.5867010309
 31
0.0
  0
MTEXT
  5
239
330
231
100
AcDbEntity
  8
KOTY
100
AcDbMText
 10
32.6249595748
 20
63.4384372509
 30
-49.9
 40
2.5
 41
0.0
 71
     1
 72
     1
  1
26,2
  7
SLDTEXTSTYLE0
 11
-6.156016597943509E-15
 21
1.0
 31
0.0
 73
     1
 44
1.0
  0
ENDBLK
  5
233
330
231
100
AcDbEntity
  8
0
100
AcDbBlockEnd
  0
BLOCK
  5
23C
330
23B
100
AcDbEntity
  8
0
100
AcDbBlockBegin
  2
*D16
 70
     1
 10
0.0
 20
0.0
 30
0.0
  3
*D16
  1

  0
SOLID
  5
23E
330
23B
100
AcDbEntity
  8
KOTY
100
AcDbTrace
 10
35.847628866
 20
53.4867010309
 30
0.0
 11
35.4630134814
 21
50.9867010309
 31
0.0
 12
36.2322442506
 22
50.9867010309
 32
0.0
 13
36.2322442506
 23
50.9867010309
 33
0.0
  0
SOLID
  5
23F
330
23B
100
AcDbEntity
  8
KOTY
100
AcDbTrace
 10
35.847628866
 20
28.9867010309
 30
0.0
 11
36.2322442506
 21
31.4867010309
 31
0.0
 12
35.4630134814
 22
31.4867010309
 32
0.0
 13
35.4630134814
 23
31.4867010309
 33
0.0
  0
LINE
  5
240
330
23B
100
AcDbEntity
  8
KOTY
100
AcDbLine
 10
43.047628866
 20
53.4867010309
 30
0.0
 11
34.847628866
 21
53.4867010309
 31
0.0
  0
LINE
  5
241
330
23B
100
AcDbEntity
  8
KOTY
100
AcDbLine
 10
43.047628866
 20
28.9867010309
 30
0.0
 11
34.847628866
 21
28.9867010309
 31
0.0
  0
LINE
  5
242
330
23B
100
AcDbEntity
  8
KOTY
100
AcDbLine
 10
35.847628866
 20
53.4867010309
 30
0.0
 11
35.847628866
 21
28.9867010309
 31
0.0
  0
MTEXT
  5
243
330
23B
100
AcDbEntity
  8
KOTY
100
AcDbMText
 10
32.6249595748
 20
36.9884372509
 30
-49.9
 40
2.5
 41
0.0
 71
     1
 72
     1
  1
24,5
  7
SLDTEXTSTYLE0
 11
-7.044195017643634E-15
 21
1.0
 31
0.0
 73
     1
 44
1.0
  0
ENDBLK
  5
23D
330
23B
100
AcDbEntity
  8
0
100
AcDbBlockEnd
  0
BLOCK
  5
246
330
245
100
AcDbEntity
  8
0
100
AcDbBlockBegin
  2
*D17
 70
     1
 10
0.0
 20
0.0
 30
0.0
  3
*D17
  1

  0
SOLID
  5
248
330
245
100
AcDbEntity
  8
KOTY
100
AcDbTrace
 10
71.1208604728
 20
79.4367010309
 30
0.0
 11
70.7362450881
 21
76.9367010309
 31
0.0
 12
71.5054758574
 22
76.9367010309
 32
0.0
 13
71.5054758574
 23
76.9367010309
 33
0.0
  0
SOLID
  5
249
330
245
100
AcDbEntity
  8
KOTY
100
AcDbTrace
 10
71.1208604728
 20
29.1367010309
 30
0.0
 11
71.5054758574
 21
31.6367010309
 31
0.0
 12
70.7362450881
 22
31.6367010309
 32
0.0
 13
70.7362450881
 23
31.6367010309
 33
0.0
  0
LINE
  5
24A
330
245
100
AcDbEntity
  8
KOTY
100
AcDbLine
 10
71.1208604728
 20
79.4367010309
 30
0.0
 11
71.1208604728
 21
29.1367010309
 31
0.0
  0
MTEXT
  5
24B
330
245
100
AcDbEntity
  8
KOTY
100
AcDbMText
 10
67.8981911815
 20
51.9537160746
 30
-49.9
 40
2.5
 41
0.0
 71
     1
 72
     1
  1
50,3
  7
SLDTEXTSTYLE0
 11
-7.044195017643634E-15
 21
1.0
 31
0.0
 73
     1
 44
1.0
  0
ENDBLK
  5
247
330
245
100
AcDbEntity
  8
0
100
AcDbBlockEnd
  0
BLOCK
  5
24E
330
24D
100
AcDbEntity
  8
0
100
AcDbBlockBegin
  2
*D18
 70
     1
 10
0.0
 20
0.0
 30
0.0
  3
*D18
  1

  0
SOLID
  5
250
330
24D
100
AcDbEntity
  8
KOTY
100
AcDbTrace
 10
81.847628866
 20
73.7867010309
 30
0.0
 11
81.4630134814
 21
71.2867010309
 31
0.0
 12
82.2322442506
 22
71.2867010309
 32
0.0
 13
82.2322442506
 23
71.2867010309
 33
0.0
  0
SOLID
  5
251
330
24D
100
AcDbEntity
  8
KOTY
100
AcDbTrace
 10
81.847628866
 20
34.7867010309
 30
0.0
 11
82.2322442506
 21
37.2867010309
 31
0.0
 12
81.4630134814
 22
37.2867010309
 32
0.0
 13
81.4630134814
 23
37.2867010309
 33
0.0
  0
LINE
  5
252
330
24D
100
AcDbEntity
  8
KOTY
100
AcDbLine
 10
75.347628866
 20
73.7867010309
 30
0.0
 11
82.847628866
 21
73.7867010309
 31
0.0
  0
LINE
  5
253
330
24D
100
AcDbEntity
  8
KOTY
100
AcDbLine
 10
75.347628866
 20
34.7867010309
 30
0.0
 11
82.847628866
 21
34.7867010309
 31
0.0
  0
LINE
  5
254
330
24D
100
AcDbEntity
  8
KOTY
100
AcDbLine
 10
81.847628866
 20
73.7867010309
 30
0.0
 11
81.847628866
 21
34.7867010309
 31
0.0
  0
MTEXT
  5
255
330
24D
100
AcDbEntity
  8
KOTY
100
AcDbMText
 10
78.6249595748
 20
51.4238536208
 30
-49.9
 40
2.5
 41
0.0
 71
     1
 72
     1
  1
39
  7
SLDTEXTSTYLE0
 11
-7.044195017643634E-15
 21
1.0
 31
0.0
 73
     1
 44
1.0
  0
ENDBLK
  5
24F
330
24D
100
AcDbEntity
  8
0
100
AcDbBlockEnd
  0
ENDSEC
  0
SECTION
  2
ENTITIES
  0
MTEXT
  5
5E
330
1F
100
AcDbEntity
  8
TEXT
100
AcDbMText
 10
103.2327654804
 20
244.8680054958
 30
0.0
 40
5.2916666667
 41
0.0
 71
     1
 72
     1
  1
A4
  7
SLDTEXTSTYLE0
 73
     1
 44
1.0
  0
MTEXT
  5
5F
330
1F
100
AcDbEntity
  8
TEXT
100
AcDbMText
 10
103.2327654804
 20
142.5875694337
 30
0.0
 40
5.2916666667
 41
0.0
 71
     1
 72
     1
  1
A5
  7
SLDTEXTSTYLE0
 73
     1
 44
1.0
  0
MTEXT
  5
60
330
1F
100
AcDbEntity
  8
TEXT
100
AcDbMText
 10
93.0708059143
 20
56.2651905176
 30
0.0
 40
5.2916666667
 41
0.0
 71
     1
 72
     1
  1
A8-12
  7
SLDTEXTSTYLE0
 73
     1
 44
1.0
  0
ARC
  5
61
330
1F
100
AcDbEntity
  8
OBRYS
100
AcDbCircle
 10
39.5288659794
 20
228.6970103093
 30
0.0
 40
0.5
100
AcDbArc
 50
0.0
 51
90.0
  0
ARC
  5
62
330
1F
100
AcDbEntity
  8
OBRYS
100
AcDbCircle
 10
39.5288659794
 20
228.4970103093
 30
0.0
 40
0.5
100
AcDbArc
 50
270.0
 51
0.0
  0
ARC
  5
63
330
1F
100
AcDbEntity
  8
OBRYS
100
AcDbCircle
 10
39.5288659794
 20
220.0470103093
 30
0.0
 40
0.5
100
AcDbArc
 50
0.0
 51
90.0
  0
ARC
  5
64
330
1F
100
AcDbEntity
  8
OBRYS
100
AcDbCircle
 10
39.5288659794
 20
219.8470103093
 30
0.0
 40
0.5
100
AcDbArc
 50
270.0
 51
0.0
  0
ARC
  5
65
330
1F
100
AcDbEntity
  8
OBRYS
100
AcDbCircle
 10
39.5288659794
 20
211.3970103093
 30
0.0
 40
0.5
100
AcDbArc
 50
0.0
 51
90.0
  0
ARC
  5
66
330
1F
100
AcDbEntity
  8
OBRYS
100
AcDbCircle
 10
39.5288659794
 20
211.1970103093
 30
0.0
 40
0.5
100
AcDbArc
 50
270.0
 51
0.0
  0
ARC
  5
67
330
1F
100
AcDbEntity
  8
OBRYS
100
AcDbCircle
 10
56.1288659794
 20
211.1970103093
 30
0.0
 40
0.5
100
AcDbArc
 50
180.0
 51
270.0
  0
ARC
  5
68
330
1F
100
AcDbEntity
  8
OBRYS
100
AcDbCircle
 10
56.1288659794
 20
211.3970103093
 30
0.0
 40
0.5
100
AcDbArc
 50
90.0
 51
180.0
  0
ARC
  5
69
330
1F
100
AcDbEntity
  8
OBRYS
100
AcDbCircle
 10
56.1288659794
 20
219.8470103093
 30
0.0
 40
0.5
100
AcDbArc
 50
180.0
 51
270.0
  0
ARC
  5
6A
330
1F
100
AcDbEntity
  8
OBRYS
100
AcDbCircle
 10
56.1288659794
 20
220.0470103093
 30
0.0
 40
0.5
100
AcDbArc
 50
90.0
 51
180.0
  0
ARC
  5
6B
330
1F
100
AcDbEntity
  8
OBRYS
100
AcDbCircle
 10
56.1288659794
 20
228.4970103093
 30
0.0
 40
0.5
100
AcDbArc
 50
180.0
 51
270.0
  0
ARC
  5
6C
330
1F
100
AcDbEntity
  8
OBRYS
100
AcDbCircle
 10
56.1288659794
 20
228.6970103093
 30
0.0
 40
0.5
100
AcDbArc
 50
90.0
 51
180.0
  0
ARC
  5
6D
330
1F
100
AcDbEntity
  8
OBRYS
100
AcDbCircle
 10
96.3288659794
 20
206.9970103093
 30
0.0
 40
0.5
100
AcDbArc
 50
270.0
 51
0.0
  0
ARC
  5
6E
330
1F
100
AcDbEntity
  8
OBRYS
100
AcDbCircle
 10
37.3288659794
 20
206.9970103093
 30
0.0
 40
0.5
100
AcDbArc
 50
180.0
 51
270.0
  0
ARC
  5
6F
330
1F
100
AcDbEntity
  8
OBRYS
100
AcDbCircle
 10
37.3288659794
 20
258.9970103093
 30
0.0
 40
0.5
100
AcDbArc
 50
90.0
 51
180.0
  0
ARC
  5
70
330
1F
100
AcDbEntity
  8
OBRYS
100
AcDbCircle
 10
39.8288659794
 20
258.9970103093
 30
0.0
 40
0.5
100
AcDbArc
 50
0.0
 51
90.0
  0
ARC
  5
71
330
1F
100
AcDbEntity
  8
OBRYS
100
AcDbCircle
 10
39.8288659794
 20
257.5970103093
 30
0.0
 40
0.5
100
AcDbArc
 50
270.0
 51
0.0
  0
ARC
  5
72
330
1F
100
AcDbEntity
  8
OBRYS
100
AcDbCircle
 10
39.6288659794
 20
257.5970103093
 30
0.0
 40
0.5
100
AcDbArc
 50
180.0
 51
270.0
  0
ARC
  5
73
330
1F
100
AcDbEntity
  8
OBRYS
100
AcDbCircle
 10
38.6288659794
 20
257.7970103093
 30
0.0
 40
0.5
100
AcDbArc
 50
0.0
 51
90.0
  0
ARC
  5
74
330
1F
100
AcDbEntity
  8
OBRYS
100
AcDbCircle
 10
38.5288659794
 20
257.7970103093
 30
0.0
 40
0.5000000000000071
100
AcDbArc
 50
90.0
 51
180.0
  0
ARC
  5
75
330
1F
100
AcDbEntity
  8
OBRYS
100
AcDbCircle
 10
38.5288659794
 20
253.3970103093
 30
0.0
 40
0.5000000000000071
100
AcDbArc
 50
180.0
 51
270.0
  0
ARC
  5
76
330
1F
100
AcDbEntity
  8
OBRYS
100
AcDbCircle
 10
38.6288659794
 20
253.3970103093
 30
0.0
 40
0.5
100
AcDbArc
 50
270.0
 51
0.0
  0
ARC
  5
77
330
1F
100
AcDbEntity
  8
OBRYS
100
AcDbCircle
 10
39.6288659794
 20
253.5970103093
 30
0.0
 40
0.5
100
AcDbArc
 50
90.0
 51
180.0
  0
ARC
  5
78
330
1F
100
AcDbEntity
  8
OBRYS
100
AcDbCircle
 10
39.8288659794
 20
253.5970103093
 30
0.0
 40
0.5
100
AcDbArc
 50
0.0
 51
90.0
  0
ARC
  5
79
330
1F
100
AcDbEntity
  8
OBRYS
100
AcDbCircle
 10
39.8288659794
 20
252.1970103093
 30
0.0
 40
0.5
100
AcDbArc
 50
270.0
 51
0.0
  0
ARC
  5
7A
330
1F
100
AcDbEntity
  8
OBRYS
100
AcDbCircle
 10
38.5288659794
 20
251.1970103093
 30
0.0
 40
0.5000000000000071
100
AcDbArc
 50
90.0
 51
180.0
  0
ARC
  5
7B
330
1F
100
AcDbEntity
  8
OBRYS
100
AcDbCircle
 10
44.8288659794
 20
232.8470103093
 30
0.0
 40
0.7500000000000057
100
AcDbArc
 50
36.8698976458
 51
143.1301023542
  0
ARC
  5
7C
330
1F
100
AcDbEntity
  8
OBRYS
100
AcDbCircle
 10
47.8288659794
 20
232.8470103093
 30
0.0
 40
0.750000000000017
100
AcDbArc
 50
36.8698976458
 51
143.1301023542
  0
ARC
  5
7D
330
1F
100
AcDbEntity
  8
OBRYS
100
AcDbCircle
 10
50.8288659794
 20
232.8470103093
 30
0.0
 40
0.750000000000017
100
AcDbArc
 50
36.8698976458
 51
143.1301023542
  0
ARC
  5
7E
330
1F
100
AcDbEntity
  8
OBRYS
100
AcDbCircle
 10
57.1288659794
 20
251.1970103093
 30
0.0
 40
0.5
100
AcDbArc
 50
0.0
 51
90.0
  0
ARC
  5
7F
330
1F
100
AcDbEntity
  8
OBRYS
100
AcDbCircle
 10
55.8288659794
 20
252.1970103093
 30
0.0
 40
0.5
100
AcDbArc
 50
180.0
 51
270.0
  0
ARC
  5
80
330
1F
100
AcDbEntity
  8
OBRYS
100
AcDbCircle
 10
55.8288659794
 20
253.5970103093
 30
0.0
 40
0.5
100
AcDbArc
 50
90.0
 51
180.0
  0
ARC
  5
81
330
1F
100
AcDbEntity
  8
OBRYS
100
AcDbCircle
 10
56.0288659794
 20
253.5970103093
 30
0.0
 40
0.5
100
AcDbArc
 50
0.0
 51
90.0
  0
ARC
  5
82
330
1F
100
AcDbEntity
  8
OBRYS
100
AcDbCircle
 10
57.0288659794
 20
253.3970103093
 30
0.0
 40
0.5
100
AcDbArc
 50
180.0
 51
270.0
  0
ARC
  5
83
330
1F
100
AcDbEntity
  8
OBRYS
100
AcDbCircle
 10
57.1288659794
 20
253.3970103093
 30
0.0
 40
0.5
100
AcDbArc
 50
270.0
 51
0.0
  0
ARC
  5
84
330
1F
100
AcDbEntity
  8
OBRYS
100
AcDbCircle
 10
57.1288659794
 20
257.7970103093
 30
0.0
 40
0.5
100
AcDbArc
 50
0.0
 51
90.0
  0
ARC
  5
85
330
1F
100
AcDbEntity
  8
OBRYS
100
AcDbCircle
 10
57.0288659794
 20
257.7970103093
 30
0.0
 40
0.5
100
AcDbArc
 50
90.0
 51
180.0
  0
ARC
  5
86
330
1F
100
AcDbEntity
  8
OBRYS
100
AcDbCircle
 10
56.0288659794
 20
257.5970103093
 30
0.0
 40
0.5
100
AcDbArc
 50
270.0
 51
0.0
  0
ARC
  5
87
330
1F
100
AcDbEntity
  8
OBRYS
100
AcDbCircle
 10
55.8288659794
 20
257.5970103093
 30
0.0
 40
0.5
100
AcDbArc
 50
180.0
 51
270.0
  0
ARC
  5
88
330
1F
100
AcDbEntity
  8
OBRYS
100
AcDbCircle
 10
55.8288659794
 20
258.9970103093
 30
0.0
 40
0.5
100
AcDbArc
 50
90.0
 51
180.0
  0
ARC
  5
89
330
1F
100
AcDbEntity
  8
OBRYS
100
AcDbCircle
 10
58.3288659794
 20
258.9970103093
 30
0.0
 40
0.5
100
AcDbArc
 50
0.0
 51
90.0
  0
ARC
  5
8A
330
1F
100
AcDbEntity
  8
OBRYS
100
AcDbCircle
 10
59.3288659794
 20
208.1970103093
 30
0.0
 40
0.5
100
AcDbArc
 50
180.0
 51
270.0
  0
ARC
  5
8B
330
1F
100
AcDbEntity
  8
OBRYS
100
AcDbCircle
 10
96.3288659794
 20
207.1970103093
 30
0.0
 40
0.5
100
AcDbArc
 50
0.0
 51
90.0
  0
LINE
  5
8C
330
1F
100
AcDbEntity
  8
OBRYS
100
AcDbLine
 10
40.0288659794
 20
220.0470103093
 30
0.0
 11
40.0288659794
 21
219.8470103093
 31
0.0
  0
LINE
  5
8D
330
1F
100
AcDbEntity
  8
OBRYS
100
AcDbLine
 10
37.3288659794
 20
206.4970103093
 30
0.0
 11
96.3288659794
 21
206.4970103093
 31
0.0
  0
LINE
  5
8E
330
1F
100
AcDbEntity
  8
OBRYS
100
AcDbLine
 10
36.8288659794
 20
258.9970103093
 30
0.0
 11
36.8288659794
 21
206.9970103093
 31
0.0
  0
LINE
  5
8F
330
1F
100
AcDbEntity
  8
OBRYS
100
AcDbLine
 10
39.8288659794
 20
259.4970103093
 30
0.0
 11
37.3288659794
 21
259.4970103093
 31
0.0
  0
LINE
  5
90
330
1F
100
AcDbEntity
  8
OBRYS
100
AcDbLine
 10
40.3288659794
 20
257.5970103093
 30
0.0
 11
40.3288659794
 21
258.9970103093
 31
0.0
  0
LINE
  5
91
330
1F
100
AcDbEntity
  8
OBRYS
100
AcDbLine
 10
39.6288659794
 20
257.0970103093
 30
0.0
 11
39.8288659794
 21
257.0970103093
 31
0.0
  0
LINE
  5
92
330
1F
100
AcDbEntity
  8
OBRYS
100
AcDbLine
 10
39.1288659794
 20
257.7970103093
 30
0.0
 11
39.1288659794
 21
257.5970103093
 31
0.0
  0
LINE
  5
93
330
1F
100
AcDbEntity
  8
OBRYS
100
AcDbLine
 10
38.5288659794
 20
258.2970103093
 30
0.0
 11
38.6288659794
 21
258.2970103093
 31
0.0
  0
LINE
  5
94
330
1F
100
AcDbEntity
  8
OBRYS
100
AcDbLine
 10
38.0288659794
 20
253.3970103093
 30
0.0
 11
38.0288659794
 21
257.7970103093
 31
0.0
  0
LINE
  5
95
330
1F
100
AcDbEntity
  8
OBRYS
100
AcDbLine
 10
38.5288659794
 20
252.8970103093
 30
0.0
 11
38.6288659794
 21
252.8970103093
 31
0.0
  0
LINE
  5
96
330
1F
100
AcDbEntity
  8
OBRYS
100
AcDbLine
 10
39.1288659794
 20
253.3970103093
 30
0.0
 11
39.1288659794
 21
253.5970103093
 31
0.0
  0
LINE
  5
97
330
1F
100
AcDbEntity
  8
OBRYS
100
AcDbLine
 10
39.6288659794
 20
254.0970103093
 30
0.0
 11
39.8288659794
 21
254.0970103093
 31
0.0
  0
LINE
  5
98
330
1F
100
AcDbEntity
  8
OBRYS
100
AcDbLine
 10
40.3288659794
 20
253.5970103093
 30
0.0
 11
40.3288659794
 21
252.1970103093
 31
0.0
  0
LINE
  5
99
330
1F
100
AcDbEntity
  8
OBRYS
100
AcDbLine
 10
39.8288659794
 20
251.6970103093
 30
0.0
 11
38.5288659794
 21
251.6970103093
 31
0.0
  0
LINE
  5
9A
330
1F
100
AcDbEntity
  8
OBRYS
100
AcDbLine
 10
38.0288659794
 20
233.2970103093
 30
0.0
 11
38.0288659794
 21
251.1970103093
 31
0.0
  0
LINE
  5
9B
330
1F
100
AcDbEntity
  8
OBRYS
100
AcDbLine
 10
51.4288659794
 20
233.2970103093
 30
0.0
 11
57.6288659794
 21
233.2970103093
 31
0.0
  0
LINE
  5
9C
330
1F
100
AcDbEntity
  8
OBRYS
100
AcDbLine
 10
57.6288659794
 20
251.1970103093
 30
0.0
 11
57.6288659794
 21
233.2970103093
 31
0.0
  0
LINE
  5
9D
330
1F
100
AcDbEntity
  8
OBRYS
100
AcDbLine
 10
55.8288659794
 20
251.6970103093
 30
0.0
 11
57.1288659794
 21
251.6970103093
 31
0.0
  0
LINE
  5
9E
330
1F
100
AcDbEntity
  8
OBRYS
100
AcDbLine
 10
55.3288659794
 20
253.5970103093
 30
0.0
 11
55.3288659794
 21
252.1970103093
 31
0.0
  0
LINE
  5
9F
330
1F
100
AcDbEntity
  8
OBRYS
100
AcDbLine
 10
56.0288659794
 20
254.0970103093
 30
0.0
 11
55.8288659794
 21
254.0970103093
 31
0.0
  0
LINE
  5
A0
330
1F
100
AcDbEntity
  8
OBRYS
100
AcDbLine
 10
56.5288659794
 20
253.3970103093
 30
0.0
 11
56.5288659794
 21
253.5970103093
 31
0.0
  0
LINE
  5
A1
330
1F
100
AcDbEntity
  8
OBRYS
100
AcDbLine
 10
57.1288659794
 20
252.8970103093
 30
0.0
 11
57.0288659794
 21
252.8970103093
 31
0.0
  0
LINE
  5
A2
330
1F
100
AcDbEntity
  8
OBRYS
100
AcDbLine
 10
57.6288659794
 20
257.7970103093
 30
0.0
 11
57.6288659794
 21
253.3970103093
 31
0.0
  0
LINE
  5
A3
330
1F
100
AcDbEntity
  8
OBRYS
100
AcDbLine
 10
57.0288659794
 20
258.2970103093
 30
0.0
 11
57.1288659794
 21
258.2970103093
 31
0.0
  0
LINE
  5
A4
330
1F
100
AcDbEntity
  8
OBRYS
100
AcDbLine
 10
56.5288659794
 20
257.5970103093
 30
0.0
 11
56.5288659794
 21
257.7970103093
 31
0.0
  0
LINE
  5
A5
330
1F
100
AcDbEntity
  8
OBRYS
100
AcDbLine
 10
55.8288659794
 20
257.0970103093
 30
0.0
 11
56.0288659794
 21
257.0970103093
 31
0.0
  0
LINE
  5
A6
330
1F
100
AcDbEntity
  8
OBRYS
100
AcDbLine
 10
55.3288659794
 20
258.9970103093
 30
0.0
 11
55.3288659794
 21
257.5970103093
 31
0.0
  0
LINE
  5
A7
330
1F
100
AcDbEntity
  8
OBRYS
100
AcDbLine
 10
58.3288659794
 20
259.4970103093
 30
0.0
 11
55.8288659794
 21
259.4970103093
 31
0.0
  0
LINE
  5
A8
330
1F
100
AcDbEntity
  8
OBRYS
100
AcDbLine
 10
58.8288659794
 20
208.1970103093
 30
0.0
 11
58.8288659794
 21
258.9970103093
 31
0.0
  0
LINE
  5
A9
330
1F
100
AcDbEntity
  8
OBRYS
100
AcDbLine
 10
96.3288659794
 20
207.6970103093
 30
0.0
 11
59.3288659794
 21
207.6970103093
 31
0.0
  0
LINE
  5
AA
330
1F
100
AcDbEntity
  8
OBRYS
100
AcDbLine
 10
96.8288659794
 20
206.9970103093
 30
0.0
 11
96.8288659794
 21
207.1970103093
 31
0.0
  0
LINE
  5
AB
330
1F
100
AcDbEntity
  8
OBRYS
100
AcDbLine
 10
39.5288659794
 20
219.3470103093
 30
0.0
 11
38.0288659794
 21
219.3470103093
 31
0.0
  0
LINE
  5
AC
330
1F
100
AcDbEntity
  8
OBRYS
100
AcDbLine
 10
38.0288659794
 20
211.8970103093
 30
0.0
 11
38.0288659794
 21
219.3470103093
 31
0.0
  0
LINE
  5
AD
330
1F
100
AcDbEntity
  8
OBRYS
100
AcDbLine
 10
38.0288659794
 20
211.8970103093
 30
0.0
 11
39.5288659794
 21
211.8970103093
 31
0.0
  0
LINE
  5
AE
330
1F
100
AcDbEntity
  8
OBRYS
100
AcDbLine
 10
40.0288659794
 20
211.3970103093
 30
0.0
 11
40.0288659794
 21
211.1970103093
 31
0.0
  0
LINE
  5
AF
330
1F
100
AcDbEntity
  8
OBRYS
100
AcDbLine
 10
39.5288659794
 20
210.6970103093
 30
0.0
 11
38.0288659794
 21
210.6970103093
 31
0.0
  0
LINE
  5
B0
330
1F
100
AcDbEntity
  8
OBRYS
100
AcDbLine
 10
38.0288659794
 20
207.6970103093
 30
0.0
 11
38.0288659794
 21
210.6970103093
 31
0.0
  0
LINE
  5
B1
330
1F
100
AcDbEntity
  8
OBRYS
100
AcDbLine
 10
57.6288659794
 20
207.6970103093
 30
0.0
 11
38.0288659794
 21
207.6970103093
 31
0.0
  0
LINE
  5
B2
330
1F
100
AcDbEntity
  8
OBRYS
100
AcDbLine
 10
57.6288659794
 20
210.6970103093
 30
0.0
 11
57.6288659794
 21
207.6970103093
 31
0.0
  0
LINE
  5
B3
330
1F
100
AcDbEntity
  8
OBRYS
100
AcDbLine
 10
56.1288659794
 20
210.6970103093
 30
0.0
 11
57.6288659794
 21
210.6970103093
 31
0.0
  0
LINE
  5
B4
330
1F
100
AcDbEntity
  8
OBRYS
100
AcDbLine
 10
55.6288659794
 20
211.3970103093
 30
0.0
 11
55.6288659794
 21
211.1970103093
 31
0.0
  0
LINE
  5
B5
330
1F
100
AcDbEntity
  8
OBRYS
100
AcDbLine
 10
57.6288659794
 20
211.8970103093
 30
0.0
 11
56.1288659794
 21
211.8970103093
 31
0.0
  0
LINE
  5
B6
330
1F
100
AcDbEntity
  8
OBRYS
100
AcDbLine
 10
57.6288659794
 20
219.3470103093
 30
0.0
 11
57.6288659794
 21
211.8970103093
 31
0.0
  0
LINE
  5
B7
330
1F
100
AcDbEntity
  8
OBRYS
100
AcDbLine
 10
56.1288659794
 20
219.3470103093
 30
0.0
 11
57.6288659794
 21
219.3470103093
 31
0.0
  0
LINE
  5
B8
330
1F
100
AcDbEntity
  8
OBRYS
100
AcDbLine
 10
55.6288659794
 20
220.0470103093
 30
0.0
 11
55.6288659794
 21
219.8470103093
 31
0.0
  0
LINE
  5
B9
330
1F
100
AcDbEntity
  8
OBRYS
100
AcDbLine
 10
57.6288659794
 20
220.5470103093
 30
0.0
 11
56.1288659794
 21
220.5470103093
 31
0.0
  0
LINE
  5
BA
330
1F
100
AcDbEntity
  8
OBRYS
100
AcDbLine
 10
57.6288659794
 20
227.9970103093
 30
0.0
 11
57.6288659794
 21
220.5470103093
 31
0.0
  0
LINE
  5
BB
330
1F
100
AcDbEntity
  8
OBRYS
100
AcDbLine
 10
56.1288659794
 20
227.9970103093
 30
0.0
 11
57.6288659794
 21
227.9970103093
 31
0.0
  0
LINE
  5
BC
330
1F
100
AcDbEntity
  8
OBRYS
100
AcDbLine
 10
55.6288659794
 20
228.6970103093
 30
0.0
 11
55.6288659794
 21
228.4970103093
 31
0.0
  0
LINE
  5
BD
330
1F
100
AcDbEntity
  8
OBRYS
100
AcDbLine
 10
57.6288659794
 20
229.1970103093
 30
0.0
 11
56.1288659794
 21
229.1970103093
 31
0.0
  0
LINE
  5
BE
330
1F
100
AcDbEntity
  8
OBRYS
100
AcDbLine
 10
57.6288659794
 20
232.1970103093
 30
0.0
 11
57.6288659794
 21
229.1970103093
 31
0.0
  0
LINE
  5
BF
330
1F
100
AcDbEntity
  8
OBRYS
100
AcDbLine
 10
38.0288659794
 20
232.1970103093
 30
0.0
 11
57.6288659794
 21
232.1970103093
 31
0.0
  0
LINE
  5
C0
330
1F
100
AcDbEntity
  8
OBRYS
100
AcDbLine
 10
38.0288659794
 20
229.1970103093
 30
0.0
 11
38.0288659794
 21
232.1970103093
 31
0.0
  0
LINE
  5
C1
330
1F
100
AcDbEntity
  8
OBRYS
100
AcDbLine
 10
38.0288659794
 20
229.1970103093
 30
0.0
 11
39.5288659794
 21
229.1970103093
 31
0.0
  0
LINE
  5
C2
330
1F
100
AcDbEntity
  8
OBRYS
100
AcDbLine
 10
40.0288659794
 20
228.6970103093
 30
0.0
 11
40.0288659794
 21
228.4970103093
 31
0.0
  0
LINE
  5
C3
330
1F
100
AcDbEntity
  8
OBRYS
100
AcDbLine
 10
39.5288659794
 20
227.9970103093
 30
0.0
 11
38.0288659794
 21
227.9970103093
 31
0.0
  0
LINE
  5
C4
330
1F
100
AcDbEntity
  8
OBRYS
100
AcDbLine
 10
38.0288659794
 20
220.5470103093
 30
0.0
 11
38.0288659794
 21
227.9970103093
 31
0.0
  0
LINE
  5
C5
330
1F
100
AcDbEntity
  8
OBRYS
100
AcDbLine
 10
38.0288659794
 20
220.5470103093
 30
0.0
 11
39.5288659794
 21
220.5470103093
 31
0.0
  0
LINE
  5
C6
330
1F
100
AcDbEntity
  8
OBRYS
100
AcDbLine
 10
38.0288659794
 20
233.2970103093
 30
0.0
 11
44.2288659794
 21
233.2970103093
 31
0.0
  0
LINE
  5
C7
330
1F
100
AcDbEntity
  8
OBRYS
100
AcDbLine
 10
45.4288659794
 20
233.2970103093
 30
0.0
 11
47.2288659794
 21
233.2970103093
 31
0.0
  0
LINE
  5
C8
330
1F
100
AcDbEntity
  8
OBRYS
100
AcDbLine
 10
48.4288659794
 20
233.2970103093
 30
0.0
 11
50.2288659794
 21
233.2970103093
 31
0.0
  0
DIMENSION
  5
C9
330
1F
100
AcDbEntity
  8
KOTY
100
AcDbDimension
  2
*D1
 10
58.8288659794
 20
271.4970103093
 30
0.0
 11
47.8288659794
 21
271.4970103093
 31
0.0
 70
   160
 71
     2
 42
-1.0
  3
SLDDIMSTYLE0
100
AcDbAlignedDimension
 13
36.8288659794
 23
258.9970103093
 33
0.0
 14
58.8288659794
 24
258.9970103093
 34
0.0
100
AcDbRotatedDimension
  0
DIMENSION
  5
D4
330
1F
100
AcDbEntity
  8
KOTY
100
AcDbDimension
  2
*D2
 10
55.3288659794
 20
265.4970103093
 30
0.0
 11
47.8288659794
 21
265.4970103093
 31
0.0
 70
   160
 71
     2
 42
-1.0
  3
SLDDIMSTYLE1
100
AcDbAlignedDimension
 13
40.3288659794
 23
258.9970103093
 33
0.0
 14
55.3288659794
 24
258.9970103093
 34
0.0
100
AcDbRotatedDimension
  0
DIMENSION
  5
E1
330
1F
100
AcDbEntity
  8
KOTY
100
AcDbDimension
  2
*D3
 10
30.8288659794
 20
233.2970103093
 30
0.0
 11
30.8288659794
 21
246.3970103093
 31
0.0
 70
   160
 71
     2
 42
-1.0
  3
SLDDIMSTYLE2
100
AcDbAlignedDimension
 13
37.3288659794
 23
259.4970103093
 33
0.0
 14
38.0288659794
 24
233.2970103093
 34
0.0
 50
90.0
100
AcDbRotatedDimension
  0
DIMENSION
  5
EC
330
1F
100
AcDbEntity
  8
KOTY
100
AcDbDimension
  2
*D4
 10
30.8288659794
 20
207.6970103093
 30
0.0
 11
30.8288659794
 21
219.9470103093
 31
0.0
 70
   160
 71
     2
 42
-1.0
  3
SLDDIMSTYLE2
100
AcDbAlignedDimension
 13
38.0288659794
 23
232.1970103093
 33
0.0
 14
38.0288659794
 24
207.6970103093
 34
0.0
 50
90.0
100
AcDbRotatedDimension
  0
DIMENSION
  5
F6
330
1F
100
AcDbEntity
  8
KOTY
100
AcDbDimension
  2
*D5
 10
24.8288659794
 20
206.4970103093
 30
0.0
 11
24.8288659794
 21
232.9970103093
 31
0.0
 70
   160
 71
     2
 42
-1.0
  3
SLDDIMSTYLE0
100
AcDbAlignedDimension
 13
37.3288659794
 23
259.4970103093
 33
0.0
 14
37.3288659794
 24
206.4970103093
 34
0.0
 50
90.0
100
AcDbRotatedDimension
  0
DIMENSION
  5
100
330
1F
100
AcDbEntity
  8
KOTY
100
AcDbDimension
  2
*D6
 10
96.8288659794
 20
200.4970103093
 30
0.0
 11
66.8288659794
 21
200.4970103093
 31
0.0
 70
   160
 71
     2
 42
-1.0
  3
SLDDIMSTYLE0
100
AcDbAlignedDimension
 13
36.8288659794
 23
206.9970103093
 33
0.0
 14
96.8288659794
 24
206.9970103093
 34
0.0
100
AcDbRotatedDimension
  0
ARC
  5
10A
330
1F
100
AcDbEntity
  8
OBRYS
100
AcDbCircle
 10
142.3866620269
 20
134.8393827364
 30
0.0
 40
0.5
100
AcDbArc
 50
0.0
 51
90.0
  0
ARC
  5
10B
330
1F
100
AcDbEntity
  8
OBRYS
100
AcDbCircle
 10
142.3866620269
 20
134.6393827364
 30
0.0
 40
0.5
100
AcDbArc
 50
270.0
 51
0.0
  0
ARC
  5
10C
330
1F
100
AcDbEntity
  8
OBRYS
100
AcDbCircle
 10
142.3866620269
 20
126.1893827364
 30
0.0
 40
0.5
100
AcDbArc
 50
0.0
 51
90.0
  0
ARC
  5
10D
330
1F
100
AcDbEntity
  8
OBRYS
100
AcDbCircle
 10
142.3866620269
 20
125.9893827364
 30
0.0
 40
0.5
100
AcDbArc
 50
270.0
 51
0.0
  0
ARC
  5
10E
330
1F
100
AcDbEntity
  8
OBRYS
100
AcDbCircle
 10
142.3866620269
 20
117.5393827364
 30
0.0
 40
0.5
100
AcDbArc
 50
0.0
 51
90.0
  0
ARC
  5
10F
330
1F
100
AcDbEntity
  8
OBRYS
100
AcDbCircle
 10
142.3866620269
 20
117.3393827364
 30
0.0
 40
0.5
100
AcDbArc
 50
270.0
 51
0.0
  0
ARC
  5
110
330
1F
100
AcDbEntity
  8
OBRYS
100
AcDbCircle
 10
158.9866620269
 20
117.3393827364
 30
0.0
 40
0.5
100
AcDbArc
 50
180.0
 51
270.0
  0
ARC
  5
111
330
1F
100
AcDbEntity
  8
OBRYS
100
AcDbCircle
 10
158.9866620269
 20
117.5393827364
 30
0.0
 40
0.5
100
AcDbArc
 50
90.0
 51
180.0
  0
ARC
  5
112
330
1F
100
AcDbEntity
  8
OBRYS
100
AcDbCircle
 10
158.9866620269
 20
125.9893827364
 30
0.0
 40
0.5
100
AcDbArc
 50
180.0
 51
270.0
  0
ARC
  5
113
330
1F
100
AcDbEntity
  8
OBRYS
100
AcDbCircle
 10
158.9866620269
 20
126.1893827364
 30
0.0
 40
0.5
100
AcDbArc
 50
90.0
 51
180.0
  0
ARC
  5
114
330
1F
100
AcDbEntity
  8
OBRYS
100
AcDbCircle
 10
158.9866620269
 20
134.6393827364
 30
0.0
 40
0.5
100
AcDbArc
 50
180.0
 51
270.0
  0
ARC
  5
115
330
1F
100
AcDbEntity
  8
OBRYS
100
AcDbCircle
 10
158.9866620269
 20
134.8393827364
 30
0.0
 40
0.5
100
AcDbArc
 50
90.0
 51
180.0
  0
ARC
  5
116
330
1F
100
AcDbEntity
  8
OBRYS
100
AcDbCircle
 10
158.8866620269
 20
151.7393827364
 30
0.0
 40
0.5
100
AcDbArc
 50
0.0
 51
90.0
  0
ARC
  5
117
330
1F
100
AcDbEntity
  8
OBRYS
100
AcDbCircle
 10
159.8866620269
 20
151.5393827364
 30
0.0
 40
0.5
100
AcDbArc
 50
180.0
 51
270.0
  0
ARC
  5
118
330
1F
100
AcDbEntity
  8
OBRYS
100
AcDbCircle
 10
159.9866620269
 20
151.5393827364
 30
0.0
 40
0.5
100
AcDbArc
 50
270.0
 51
0.0
  0
ARC
  5
119
330
1F
100
AcDbEntity
  8
OBRYS
100
AcDbCircle
 10
159.9866620269
 20
155.9393827364
 30
0.0
 40
0.5
100
AcDbArc
 50
0.0
 51
90.0
  0
ARC
  5
11A
330
1F
100
AcDbEntity
  8
OBRYS
100
AcDbCircle
 10
159.8866620269
 20
155.9393827364
 30
0.0
 40
0.5
100
AcDbArc
 50
90.0
 51
180.0
  0
ARC
  5
11B
330
1F
100
AcDbEntity
  8
OBRYS
100
AcDbCircle
 10
158.8866620269
 20
155.7393827364
 30
0.0
 40
0.5
100
AcDbArc
 50
270.0
 51
0.0
  0
ARC
  5
11C
330
1F
100
AcDbEntity
  8
OBRYS
100
AcDbCircle
 10
158.6866620269
 20
155.7393827364
 30
0.0
 40
0.5
100
AcDbArc
 50
180.0
 51
270.0
  0
ARC
  5
11D
330
1F
100
AcDbEntity
  8
OBRYS
100
AcDbCircle
 10
158.6866620269
 20
157.1393827364
 30
0.0
 40
0.5
100
AcDbArc
 50
90.0
 51
180.0
  0
ARC
  5
11E
330
1F
100
AcDbEntity
  8
OBRYS
100
AcDbCircle
 10
161.1866620269
 20
157.1393827364
 30
0.0
 40
0.5
100
AcDbArc
 50
0.0
 51
90.0
  0
ARC
  5
11F
330
1F
100
AcDbEntity
  8
OBRYS
100
AcDbCircle
 10
140.1866620269
 20
157.1393827364
 30
0.0
 40
0.5
100
AcDbArc
 50
90.0
 51
180.0
  0
ARC
  5
120
330
1F
100
AcDbEntity
  8
OBRYS
100
AcDbCircle
 10
142.6866620269
 20
157.1393827364
 30
0.0
 40
0.5
100
AcDbArc
 50
0.0
 51
90.0
  0
ARC
  5
121
330
1F
100
AcDbEntity
  8
OBRYS
100
AcDbCircle
 10
142.6866620269
 20
155.7393827364
 30
0.0
 40
0.5
100
AcDbArc
 50
270.0
 51
0.0
  0
ARC
  5
122
330
1F
100
AcDbEntity
  8
OBRYS
100
AcDbCircle
 10
142.4866620269
 20
155.7393827364
 30
0.0
 40
0.5
100
AcDbArc
 50
180.0
 51
270.0
  0
ARC
  5
123
330
1F
100
AcDbEntity
  8
OBRYS
100
AcDbCircle
 10
141.4866620269
 20
155.9393827364
 30
0.0
 40
0.5
100
AcDbArc
 50
0.0
 51
90.0
  0
ARC
  5
124
330
1F
100
AcDbEntity
  8
OBRYS
100
AcDbCircle
 10
141.3866620269
 20
155.9393827364
 30
0.0
 40
0.5
100
AcDbArc
 50
90.0
 51
180.0
  0
ARC
  5
125
330
1F
100
AcDbEntity
  8
OBRYS
100
AcDbCircle
 10
141.3866620269
 20
151.5393827364
 30
0.0
 40
0.5
100
AcDbArc
 50
180.0
 51
270.0
  0
ARC
  5
126
330
1F
100
AcDbEntity
  8
OBRYS
100
AcDbCircle
 10
141.4866620269
 20
151.5393827364
 30
0.0
 40
0.5
100
AcDbArc
 50
270.0
 51
0.0
  0
ARC
  5
127
330
1F
100
AcDbEntity
  8
OBRYS
100
AcDbCircle
 10
142.4866620269
 20
151.7393827364
 30
0.0
 40
0.5
100
AcDbArc
 50
90.0
 51
180.0
  0
ARC
  5
128
330
1F
100
AcDbEntity
  8
OBRYS
100
AcDbCircle
 10
142.6866620269
 20
151.7393827364
 30
0.0
 40
0.5
100
AcDbArc
 50
0.0
 51
90.0
  0
ARC
  5
129
330
1F
100
AcDbEntity
  8
OBRYS
100
AcDbCircle
 10
142.6866620269
 20
150.3393827364
 30
0.0
 40
0.5
100
AcDbArc
 50
270.0
 51
0.0
  0
ARC
  5
12A
330
1F
100
AcDbEntity
  8
OBRYS
100
AcDbCircle
 10
141.3866620269
 20
149.3393827364
 30
0.0
 40
0.5
100
AcDbArc
 50
90.0
 51
180.0
  0
ARC
  5
12B
330
1F
100
AcDbEntity
  8
OBRYS
100
AcDbCircle
 10
147.6866620269
 20
138.9893827364
 30
0.0
 40
0.7500000000000057
100
AcDbArc
 50
36.8698976458
 51
143.1301023542
  0
ARC
  5
12C
330
1F
100
AcDbEntity
  8
OBRYS
100
AcDbCircle
 10
150.6866620269
 20
138.9893827364
 30
0.0
 40
0.7500000000000057
100
AcDbArc
 50
36.8698976458
 51
143.1301023542
  0
ARC
  5
12D
330
1F
100
AcDbEntity
  8
OBRYS
100
AcDbCircle
 10
153.6866620269
 20
138.9893827364
 30
0.0
 40
0.7500000000000284
100
AcDbArc
 50
36.8698976458
 51
143.1301023542
  0
ARC
  5
12E
330
1F
100
AcDbEntity
  8
OBRYS
100
AcDbCircle
 10
159.9866620269
 20
149.3393827364
 30
0.0
 40
0.5
100
AcDbArc
 50
0.0
 51
90.0
  0
ARC
  5
12F
330
1F
100
AcDbEntity
  8
OBRYS
100
AcDbCircle
 10
158.6866620269
 20
150.3393827364
 30
0.0
 40
0.5
100
AcDbArc
 50
180.0
 51
270.0
  0
ARC
  5
130
330
1F
100
AcDbEntity
  8
OBRYS
100
AcDbCircle
 10
158.6866620269
 20
151.7393827364
 30
0.0
 40
0.5
100
AcDbArc
 50
90.0
 51
180.0
  0
LINE
  5
131
330
1F
100
AcDbEntity
  8
OBRYS
100
AcDbLine
 10
142.8866620269
 20
126.1893827364
 30
0.0
 11
142.8866620269
 21
125.9893827364
 31
0.0
  0
LINE
  5
132
330
1F
100
AcDbEntity
  8
OBRYS
100
AcDbLine
 10
139.6866620269
 20
112.6393827364
 30
0.0
 11
161.6866620269
 21
112.6393827364
 31
0.0
  0
LINE
  5
133
330
1F
100
AcDbEntity
  8
OBRYS
100
AcDbLine
 10
139.6866620269
 20
157.1393827364
 30
0.0
 11
139.6866620269
 21
112.6393827364
 31
0.0
  0
LINE
  5
134
330
1F
100
AcDbEntity
  8
OBRYS
100
AcDbLine
 10
142.6866620269
 20
157.6393827364
 30
0.0
 11
140.1866620269
 21
157.6393827364
 31
0.0
  0
LINE
  5
135
330
1F
100
AcDbEntity
  8
OBRYS
100
AcDbLine
 10
143.1866620269
 20
155.7393827364
 30
0.0
 11
143.1866620269
 21
157.1393827364
 31
0.0
  0
LINE
  5
136
330
1F
100
AcDbEntity
  8
OBRYS
100
AcDbLine
 10
142.4866620269
 20
155.2393827364
 30
0.0
 11
142.6866620269
 21
155.2393827364
 31
0.0
  0
LINE
  5
137
330
1F
100
AcDbEntity
  8
OBRYS
100
AcDbLine
 10
141.9866620269
 20
155.9393827364
 30
0.0
 11
141.9866620269
 21
155.7393827364
 31
0.0
  0
LINE
  5
138
330
1F
100
AcDbEntity
  8
OBRYS
100
AcDbLine
 10
141.3866620269
 20
156.4393827364
 30
0.0
 11
141.4866620269
 21
156.4393827364
 31
0.0
  0
LINE
  5
139
330
1F
100
AcDbEntity
  8
OBRYS
100
AcDbLine
 10
140.8866620269
 20
151.5393827364
 30
0.0
 11
140.8866620269
 21
155.9393827364
 31
0.0
  0
LINE
  5
13A
330
1F
100
AcDbEntity
  8
OBRYS
100
AcDbLine
 10
141.3866620269
 20
151.0393827364
 30
0.0
 11
141.4866620269
 21
151.0393827364
 31
0.0
  0
LINE
  5
13B
330
1F
100
AcDbEntity
  8
OBRYS
100
AcDbLine
 10
141.9866620269
 20
151.5393827364
 30
0.0
 11
141.9866620269
 21
151.7393827364
 31
0.0
  0
LINE
  5
13C
330
1F
100
AcDbEntity
  8
OBRYS
100
AcDbLine
 10
142.4866620269
 20
152.2393827364
 30
0.0
 11
142.6866620269
 21
152.2393827364
 31
0.0
  0
LINE
  5
13D
330
1F
100
AcDbEntity
  8
OBRYS
100
AcDbLine
 10
143.1866620269
 20
151.7393827364
 30
0.0
 11
143.1866620269
 21
150.3393827364
 31
0.0
  0
LINE
  5
13E
330
1F
100
AcDbEntity
  8
OBRYS
100
AcDbLine
 10
142.6866620269
 20
149.8393827364
 30
0.0
 11
141.3866620269
 21
149.8393827364
 31
0.0
  0
LINE
  5
13F
330
1F
100
AcDbEntity
  8
OBRYS
100
AcDbLine
 10
140.8866620269
 20
139.4393827364
 30
0.0
 11
140.8866620269
 21
149.3393827364
 31
0.0
  0
LINE
  5
140
330
1F
100
AcDbEntity
  8
OBRYS
100
AcDbLine
 10
154.2866620269
 20
139.4393827364
 30
0.0
 11
160.4866620269
 21
139.4393827364
 31
0.0
  0
LINE
  5
141
330
1F
100
AcDbEntity
  8
OBRYS
100
AcDbLine
 10
160.4866620269
 20
149.3393827364
 30
0.0
 11
160.4866620269
 21
139.4393827364
 31
0.0
  0
LINE
  5
142
330
1F
100
AcDbEntity
  8
OBRYS
100
AcDbLine
 10
158.6866620269
 20
149.8393827364
 30
0.0
 11
159.9866620269
 21
149.8393827364
 31
0.0
  0
LINE
  5
143
330
1F
100
AcDbEntity
  8
OBRYS
100
AcDbLine
 10
158.1866620269
 20
151.7393827364
 30
0.0
 11
158.1866620269
 21
150.3393827364
 31
0.0
  0
LINE
  5
144
330
1F
100
AcDbEntity
  8
OBRYS
100
AcDbLine
 10
158.8866620269
 20
152.2393827364
 30
0.0
 11
158.6866620269
 21
152.2393827364
 31
0.0
  0
LINE
  5
145
330
1F
100
AcDbEntity
  8
OBRYS
100
AcDbLine
 10
159.3866620269
 20
151.5393827364
 30
0.0
 11
159.3866620269
 21
151.7393827364
 31
0.0
  0
LINE
  5
146
330
1F
100
AcDbEntity
  8
OBRYS
100
AcDbLine
 10
159.9866620269
 20
151.0393827364
 30
0.0
 11
159.8866620269
 21
151.0393827364
 31
0.0
  0
LINE
  5
147
330
1F
100
AcDbEntity
  8
OBRYS
100
AcDbLine
 10
160.4866620269
 20
155.9393827364
 30
0.0
 11
160.4866620269
 21
151.5393827364
 31
0.0
  0
LINE
  5
148
330
1F
100
AcDbEntity
  8
OBRYS
100
AcDbLine
 10
159.8866620269
 20
156.4393827364
 30
0.0
 11
159.9866620269
 21
156.4393827364
 31
0.0
  0
LINE
  5
149
330
1F
100
AcDbEntity
  8
OBRYS
100
AcDbLine
 10
159.3866620269
 20
155.7393827364
 30
0.0
 11
159.3866620269
 21
155.9393827364
 31
0.0
  0
LINE
  5
14A
330
1F
100
AcDbEntity
  8
OBRYS
100
AcDbLine
 10
158.6866620269
 20
155.2393827364
 30
0.0
 11
158.8866620269
 21
155.2393827364
 31
0.0
  0
LINE
  5
14B
330
1F
100
AcDbEntity
  8
OBRYS
100
AcDbLine
 10
158.1866620269
 20
157.1393827364
 30
0.0
 11
158.1866620269
 21
155.7393827364
 31
0.0
  0
LINE
  5
14C
330
1F
100
AcDbEntity
  8
OBRYS
100
AcDbLine
 10
161.1866620269
 20
157.6393827364
 30
0.0
 11
158.6866620269
 21
157.6393827364
 31
0.0
  0
LINE
  5
14D
330
1F
100
AcDbEntity
  8
OBRYS
100
AcDbLine
 10
161.6866620269
 20
157.1393827364
 30
0.0
 11
161.6866620269
 21
112.6393827364
 31
0.0
  0
LINE
  5
14E
330
1F
100
AcDbEntity
  8
OBRYS
100
AcDbLine
 10
142.3866620269
 20
125.4893827364
 30
0.0
 11
140.8866620269
 21
125.4893827364
 31
0.0
  0
LINE
  5
14F
330
1F
100
AcDbEntity
  8
OBRYS
100
AcDbLine
 10
140.8866620269
 20
118.0393827364
 30
0.0
 11
140.8866620269
 21
125.4893827364
 31
0.0
  0
LINE
  5
150
330
1F
100
AcDbEntity
  8
OBRYS
100
AcDbLine
 10
140.8866620269
 20
118.0393827364
 30
0.0
 11
142.3866620269
 21
118.0393827364
 31
0.0
  0
LINE
  5
151
330
1F
100
AcDbEntity
  8
OBRYS
100
AcDbLine
 10
142.8866620269
 20
117.5393827364
 30
0.0
 11
142.8866620269
 21
117.3393827364
 31
0.0
  0
LINE
  5
152
330
1F
100
AcDbEntity
  8
OBRYS
100
AcDbLine
 10
142.3866620269
 20
116.8393827364
 30
0.0
 11
140.8866620269
 21
116.8393827364
 31
0.0
  0
LINE
  5
153
330
1F
100
AcDbEntity
  8
OBRYS
100
AcDbLine
 10
140.8866620269
 20
113.8393827364
 30
0.0
 11
140.8866620269
 21
116.8393827364
 31
0.0
  0
LINE
  5
154
330
1F
100
AcDbEntity
  8
OBRYS
100
AcDbLine
 10
160.4866620269
 20
113.8393827364
 30
0.0
 11
140.8866620269
 21
113.8393827364
 31
0.0
  0
LINE
  5
155
330
1F
100
AcDbEntity
  8
OBRYS
100
AcDbLine
 10
160.4866620269
 20
116.8393827364
 30
0.0
 11
160.4866620269
 21
113.8393827364
 31
0.0
  0
LINE
  5
156
330
1F
100
AcDbEntity
  8
OBRYS
100
AcDbLine
 10
158.9866620269
 20
116.8393827364
 30
0.0
 11
160.4866620269
 21
116.8393827364
 31
0.0
  0
LINE
  5
157
330
1F
100
AcDbEntity
  8
OBRYS
100
AcDbLine
 10
158.4866620269
 20
117.5393827364
 30
0.0
 11
158.4866620269
 21
117.3393827364
 31
0.0
  0
LINE
  5
158
330
1F
100
AcDbEntity
  8
OBRYS
100
AcDbLine
 10
160.4866620269
 20
118.0393827364
 30
0.0
 11
158.9866620269
 21
118.0393827364
 31
0.0
  0
LINE
  5
159
330
1F
100
AcDbEntity
  8
OBRYS
100
AcDbLine
 10
160.4866620269
 20
125.4893827364
 30
0.0
 11
160.4866620269
 21
118.0393827364
 31
0.0
  0
LINE
  5
15A
330
1F
100
AcDbEntity
  8
OBRYS
100
AcDbLine
 10
158.9866620269
 20
125.4893827364
 30
0.0
 11
160.4866620269
 21
125.4893827364
 31
0.0
  0
LINE
  5
15B
330
1F
100
AcDbEntity
  8
OBRYS
100
AcDbLine
 10
158.4866620269
 20
126.1893827364
 30
0.0
 11
158.4866620269
 21
125.9893827364
 31
0.0
  0
LINE
  5
15C
330
1F
100
AcDbEntity
  8
OBRYS
100
AcDbLine
 10
160.4866620269
 20
126.6893827364
 30
0.0
 11
158.9866620269
 21
126.6893827364
 31
0.0
  0
LINE
  5
15D
330
1F
100
AcDbEntity
  8
OBRYS
100
AcDbLine
 10
160.4866620269
 20
134.1393827364
 30
0.0
 11
160.4866620269
 21
126.6893827364
 31
0.0
  0
LINE
  5
15E
330
1F
100
AcDbEntity
  8
OBRYS
100
AcDbLine
 10
158.9866620269
 20
134.1393827364
 30
0.0
 11
160.4866620269
 21
134.1393827364
 31
0.0
  0
LINE
  5
15F
330
1F
100
AcDbEntity
  8
OBRYS
100
AcDbLine
 10
158.4866620269
 20
134.8393827364
 30
0.0
 11
158.4866620269
 21
134.6393827364
 31
0.0
  0
LINE
  5
160
330
1F
100
AcDbEntity
  8
OBRYS
100
AcDbLine
 10
160.4866620269
 20
135.3393827364
 30
0.0
 11
158.9866620269
 21
135.3393827364
 31
0.0
  0
LINE
  5
161
330
1F
100
AcDbEntity
  8
OBRYS
100
AcDbLine
 10
160.4866620269
 20
138.3393827364
 30
0.0
 11
160.4866620269
 21
135.3393827364
 31
0.0
  0
LINE
  5
162
330
1F
100
AcDbEntity
  8
OBRYS
100
AcDbLine
 10
140.8866620269
 20
138.3393827364
 30
0.0
 11
160.4866620269
 21
138.3393827364
 31
0.0
  0
LINE
  5
163
330
1F
100
AcDbEntity
  8
OBRYS
100
AcDbLine
 10
140.8866620269
 20
135.3393827364
 30
0.0
 11
140.8866620269
 21
138.3393827364
 31
0.0
  0
LINE
  5
164
330
1F
100
AcDbEntity
  8
OBRYS
100
AcDbLine
 10
140.8866620269
 20
135.3393827364
 30
0.0
 11
142.3866620269
 21
135.3393827364
 31
0.0
  0
LINE
  5
165
330
1F
100
AcDbEntity
  8
OBRYS
100
AcDbLine
 10
142.8866620269
 20
134.8393827364
 30
0.0
 11
142.8866620269
 21
134.6393827364
 31
0.0
  0
LINE
  5
166
330
1F
100
AcDbEntity
  8
OBRYS
100
AcDbLine
 10
142.3866620269
 20
134.1393827364
 30
0.0
 11
140.8866620269
 21
134.1393827364
 31
0.0
  0
LINE
  5
167
330
1F
100
AcDbEntity
  8
OBRYS
100
AcDbLine
 10
140.8866620269
 20
126.6893827364
 30
0.0
 11
140.8866620269
 21
134.1393827364
 31
0.0
  0
LINE
  5
168
330
1F
100
AcDbEntity
  8
OBRYS
100
AcDbLine
 10
140.8866620269
 20
126.6893827364
 30
0.0
 11
142.3866620269
 21
126.6893827364
 31
0.0
  0
LINE
  5
169
330
1F
100
AcDbEntity
  8
OBRYS
100
AcDbLine
 10
140.8866620269
 20
139.4393827364
 30
0.0
 11
147.0866620269
 21
139.4393827364
 31
0.0
  0
LINE
  5
16A
330
1F
100
AcDbEntity
  8
OBRYS
100
AcDbLine
 10
148.2866620269
 20
139.4393827364
 30
0.0
 11
150.0866620269
 21
139.4393827364
 31
0.0
  0
LINE
  5
16B
330
1F
100
AcDbEntity
  8
OBRYS
100
AcDbLine
 10
151.2866620269
 20
139.4393827364
 30
0.0
 11
153.0866620269
 21
139.4393827364
 31
0.0
  0
DIMENSION
  5
16C
330
1F
100
AcDbEntity
  8
KOTY
100
AcDbDimension
  2
*D7
 10
161.6866620269
 20
169.6393827364
 30
0.0
 11
150.6866620269
 21
169.6393827364
 31
0.0
 70
   160
 71
     2
 42
-1.0
  3
SLDDIMSTYLE0
100
AcDbAlignedDimension
 13
139.6866620269
 23
157.1393827364
 33
0.0
 14
161.6866620269
 24
157.1393827364
 34
0.0
 50
0.0
100
AcDbRotatedDimension
  0
DIMENSION
  5
176
330
1F
100
AcDbEntity
  8
KOTY
100
AcDbDimension
  2
*D8
 10
158.1866620269
 20
163.6393827364
 30
0.0
 11
150.6866620269
 21
163.6393827364
 31
0.0
 70
   160
 71
     2
 42
-1.0
  3
SLDDIMSTYLE1
100
AcDbAlignedDimension
 13
143.1866620269
 23
157.1393827364
 33
0.0
 14
158.1866620269
 24
157.1393827364
 34
0.0
100
AcDbRotatedDimension
  0
DIMENSION
  5
182
330
1F
100
AcDbEntity
  8
KOTY
100
AcDbDimension
  2
*D9
 10
133.6866620269
 20
139.4393827364
 30
0.0
 11
133.6866620269
 21
148.5393827364
 31
0.0
 70
   160
 71
     2
 42
-1.0
  3
SLDDIMSTYLE2
100
AcDbAlignedDimension
 13
140.1866620269
 23
157.6393827364
 33
0.0
 14
140.8866620269
 24
139.4393827364
 34
0.0
 50
90.0
100
AcDbRotatedDimension
  0
DIMENSION
  5
18C
330
1F
100
AcDbEntity
  8
KOTY
100
AcDbDimension
  2
*D10
 10
127.6866620269
 20
112.6393827364
 30
0.0
 11
127.6866620269
 21
135.1393827364
 31
0.0
 70
   160
 71
     2
 42
-1.0
  3
SLDDIMSTYLE0
100
AcDbAlignedDimension
 13
140.1866620269
 23
157.6393827364
 33
0.0
 14
139.6866620269
 24
112.6393827364
 34
0.0
 50
90.0
100
AcDbRotatedDimension
  0
ARC
  5
196
330
1F
100
AcDbEntity
  8
OBRYS
100
AcDbCircle
 10
44.547628866
 20
49.9867010309
 30
0.0
 40
0.5
100
AcDbArc
 50
0.0
 51
90.0
  0
ARC
  5
197
330
1F
100
AcDbEntity
  8
OBRYS
100
AcDbCircle
 10
44.547628866
 20
49.7867010309
 30
0.0
 40
0.5
100
AcDbArc
 50
270.0
 51
0.0
  0
ARC
  5
198
330
1F
100
AcDbEntity
  8
OBRYS
100
AcDbCircle
 10
44.547628866
 20
41.3367010309
 30
0.0
 40
0.5
100
AcDbArc
 50
0.0
 51
90.0
  0
ARC
  5
199
330
1F
100
AcDbEntity
  8
OBRYS
100
AcDbCircle
 10
44.547628866
 20
41.1367010309
 30
0.0
 40
0.5000000000000071
100
AcDbArc
 50
270.0
 51
0.0
  0
ARC
  5
19A
330
1F
100
AcDbEntity
  8
OBRYS
100
AcDbCircle
 10
44.547628866
 20
32.6867010309
 30
0.0
 40
0.5
100
AcDbArc
 50
0.0
 51
90.0
  0
ARC
  5
19B
330
1F
100
AcDbEntity
  8
OBRYS
100
AcDbCircle
 10
44.547628866
 20
32.4867010309
 30
0.0
 40
0.5000000000000036
100
AcDbArc
 50
270.0
 51
0.0
  0
ARC
  5
19C
330
1F
100
AcDbEntity
  8
OBRYS
100
AcDbCircle
 10
61.147628866
 20
32.4867010309
 30
0.0
 40
0.5000000000000036
100
AcDbArc
 50
180.0
 51
270.0
  0
ARC
  5
19D
330
1F
100
AcDbEntity
  8
OBRYS
100
AcDbCircle
 10
61.147628866
 20
32.6867010309
 30
0.0
 40
0.5
100
AcDbArc
 50
90.0
 51
180.0
  0
ARC
  5
19E
330
1F
100
AcDbEntity
  8
OBRYS
100
AcDbCircle
 10
61.147628866
 20
41.1367010309
 30
0.0
 40
0.5000000000000071
100
AcDbArc
 50
180.0
 51
270.0
  0
ARC
  5
19F
330
1F
100
AcDbEntity
  8
OBRYS
100
AcDbCircle
 10
61.147628866
 20
41.3367010309
 30
0.0
 40
0.5
100
AcDbArc
 50
90.0
 51
180.0
  0
ARC
  5
1A0
330
1F
100
AcDbEntity
  8
OBRYS
100
AcDbCircle
 10
61.147628866
 20
49.7867010309
 30
0.0
 40
0.5
100
AcDbArc
 50
180.0
 51
270.0
  0
ARC
  5
1A1
330
1F
100
AcDbEntity
  8
OBRYS
100
AcDbCircle
 10
61.147628866
 20
49.9867010309
 30
0.0
 40
0.5
100
AcDbArc
 50
90.0
 51
180.0
  0
ARC
  5
1A2
330
1F
100
AcDbEntity
  8
OBRYS
100
AcDbCircle
 10
42.347628866
 20
28.2867010309
 30
0.0
 40
0.5
100
AcDbArc
 50
180.0
 51
270.0
  0
ARC
  5
1A3
330
1F
100
AcDbEntity
  8
OBRYS
100
AcDbCircle
 10
42.347628866
 20
80.2867010309
 30
0.0
 40
0.5
100
AcDbArc
 50
90.0
 51
180.0
  0
ARC
  5
1A4
330
1F
100
AcDbEntity
  8
OBRYS
100
AcDbCircle
 10
44.847628866
 20
80.2867010309
 30
0.0
 40
0.5
100
AcDbArc
 50
0.0
 51
90.0
  0
ARC
  5
1A5
330
1F
100
AcDbEntity
  8
OBRYS
100
AcDbCircle
 10
44.847628866
 20
78.8867010309
 30
0.0
 40
0.5
100
AcDbArc
 50
270.0
 51
0.0
  0
ARC
  5
1A6
330
1F
100
AcDbEntity
  8
OBRYS
100
AcDbCircle
 10
44.647628866
 20
78.8867010309
 30
0.0
 40
0.5
100
AcDbArc
 50
180.0
 51
270.0
  0
ARC
  5
1A7
330
1F
100
AcDbEntity
  8
OBRYS
100
AcDbCircle
 10
43.647628866
 20
79.0867010309
 30
0.0
 40
0.5
100
AcDbArc
 50
0.0
 51
90.0
  0
ARC
  5
1A8
330
1F
100
AcDbEntity
  8
OBRYS
100
AcDbCircle
 10
43.547628866
 20
79.0867010309
 30
0.0
 40
0.5
100
AcDbArc
 50
90.0
 51
180.0
  0
ARC
  5
1A9
330
1F
100
AcDbEntity
  8
OBRYS
100
AcDbCircle
 10
43.547628866
 20
74.6867010309
 30
0.0
 40
0.5
100
AcDbArc
 50
180.0
 51
270.0
  0
ARC
  5
1AA
330
1F
100
AcDbEntity
  8
OBRYS
100
AcDbCircle
 10
43.647628866
 20
74.6867010309
 30
0.0
 40
0.5
100
AcDbArc
 50
270.0
 51
0.0
  0
ARC
  5
1AB
330
1F
100
AcDbEntity
  8
OBRYS
100
AcDbCircle
 10
44.647628866
 20
74.8867010309
 30
0.0
 40
0.5
100
AcDbArc
 50
90.0
 51
180.0
  0
ARC
  5
1AC
330
1F
100
AcDbEntity
  8
OBRYS
100
AcDbCircle
 10
44.847628866
 20
74.8867010309
 30
0.0
 40
0.5
100
AcDbArc
 50
0.0
 51
90.0
  0
ARC
  5
1AD
330
1F
100
AcDbEntity
  8
OBRYS
100
AcDbCircle
 10
44.847628866
 20
73.4867010309
 30
0.0
 40
0.5
100
AcDbArc
 50
270.0
 51
0.0
  0
ARC
  5
1AE
330
1F
100
AcDbEntity
  8
OBRYS
100
AcDbCircle
 10
43.547628866
 20
72.4867010309
 30
0.0
 40
0.5
100
AcDbArc
 50
90.0
 51
180.0
  0
ARC
  5
1AF
330
1F
100
AcDbEntity
  8
OBRYS
100
AcDbCircle
 10
49.847628866
 20
54.1367010309
 30
0.0
 40
0.7500000000000028
100
AcDbArc
 50
36.8698976458
 51
143.1301023542
  0
ARC
  5
1B0
330
1F
100
AcDbEntity
  8
OBRYS
100
AcDbCircle
 10
52.847628866
 20
54.1367010309
 30
0.0
 40
0.7500000000000028
100
AcDbArc
 50
36.8698976458
 51
143.1301023542
  0
ARC
  5
1B1
330
1F
100
AcDbEntity
  8
OBRYS
100
AcDbCircle
 10
55.847628866
 20
54.1367010309
 30
0.0
 40
0.7500000000000028
100
AcDbArc
 50
36.8698976458
 51
143.1301023542
  0
ARC
  5
1B2
330
1F
100
AcDbEntity
  8
OBRYS
100
AcDbCircle
 10
62.147628866
 20
72.4867010309
 30
0.0
 40
0.5
100
AcDbArc
 50
0.0
 51
90.0
  0
ARC
  5
1B3
330
1F
100
AcDbEntity
  8
OBRYS
100
AcDbCircle
 10
60.847628866
 20
73.4867010309
 30
0.0
 40
0.5
100
AcDbArc
 50
180.0
 51
270.0
  0
ARC
  5
1B4
330
1F
100
AcDbEntity
  8
OBRYS
100
AcDbCircle
 10
60.847628866
 20
74.8867010309
 30
0.0
 40
0.5
100
AcDbArc
 50
90.0
 51
180.0
  0
ARC
  5
1B5
330
1F
100
AcDbEntity
  8
OBRYS
100
AcDbCircle
 10
61.047628866
 20
74.8867010309
 30
0.0
 40
0.5
100
AcDbArc
 50
0.0
 51
90.0
  0
ARC
  5
1B6
330
1F
100
AcDbEntity
  8
OBRYS
100
AcDbCircle
 10
62.047628866
 20
74.6867010309
 30
0.0
 40
0.5
100
AcDbArc
 50
180.0
 51
270.0
  0
ARC
  5
1B7
330
1F
100
AcDbEntity
  8
OBRYS
100
AcDbCircle
 10
62.147628866
 20
74.6867010309
 30
0.0
 40
0.5
100
AcDbArc
 50
270.0
 51
0.0
  0
ARC
  5
1B8
330
1F
100
AcDbEntity
  8
OBRYS
100
AcDbCircle
 10
62.147628866
 20
79.0867010309
 30
0.0
 40
0.5
100
AcDbArc
 50
0.0
 51
90.0
  0
ARC
  5
1B9
330
1F
100
AcDbEntity
  8
OBRYS
100
AcDbCircle
 10
62.047628866
 20
79.0867010309
 30
0.0
 40
0.5
100
AcDbArc
 50
90.0
 51
180.0
  0
ARC
  5
1BA
330
1F
100
AcDbEntity
  8
OBRYS
100
AcDbCircle
 10
61.047628866
 20
78.8867010309
 30
0.0
 40
0.5
100
AcDbArc
 50
270.0
 51
0.0
  0
ARC
  5
1BB
330
1F
100
AcDbEntity
  8
OBRYS
100
AcDbCircle
 10
60.847628866
 20
78.8867010309
 30
0.0
 40
0.5
100
AcDbArc
 50
180.0
 51
270.0
  0
ARC
  5
1BC
330
1F
100
AcDbEntity
  8
OBRYS
100
AcDbCircle
 10
60.847628866
 20
80.2867010309
 30
0.0
 40
0.5
100
AcDbArc
 50
90.0
 51
180.0
  0
ARC
  5
1BD
330
1F
100
AcDbEntity
  8
OBRYS
100
AcDbCircle
 10
75.347628866
 20
80.2867010309
 30
0.0
 40
0.5
100
AcDbArc
 50
0.0
 51
90.0
  0
ARC
  5
1BE
330
1F
100
AcDbEntity
  8
OBRYS
100
AcDbCircle
 10
75.347628866
 20
74.2867010309
 30
0.0
 40
0.5
100
AcDbArc
 50
270.0
 51
0.0
  0
ARC
  5
1BF
330
1F
100
AcDbEntity
  8
OBRYS
100
AcDbCircle
 10
74.997628866
 20
74.2867010309
 30
0.0
 40
0.5
100
AcDbArc
 50
180.0
 51
270.0
  0
ARC
  5
1C0
330
1F
100
AcDbEntity
  8
OBRYS
100
AcDbCircle
 10
74.997628866
 20
34.2867010309
 30
0.0
 40
0.5000000000000071
100
AcDbArc
 50
90.0
 51
180.0
  0
ARC
  5
1C1
330
1F
100
AcDbEntity
  8
OBRYS
100
AcDbCircle
 10
75.347628866
 20
34.2867010309
 30
0.0
 40
0.5000000000000071
100
AcDbArc
 50
0.0
 51
90.0
  0
ARC
  5
1C2
330
1F
100
AcDbEntity
  8
OBRYS
100
AcDbCircle
 10
75.347628866
 20
28.2867010309
 30
0.0
 40
0.5
100
AcDbArc
 50
270.0
 51
0.0
  0
LINE
  5
1C3
330
1F
100
AcDbEntity
  8
OBRYS
100
AcDbLine
 10
45.047628866
 20
41.3367010309
 30
0.0
 11
45.047628866
 21
41.1367010309
 31
0.0
  0
LINE
  5
1C4
330
1F
100
AcDbEntity
  8
OBRYS
100
AcDbLine
 10
63.847628866
 20
29.1367010309
 30
0.0
 11
63.847628866
 21
79.4367010309
 31
0.0
  0
LINE
  5
1C5
330
1F
100
AcDbEntity
  8
OBRYS
100
AcDbLine
 10
74.497628866
 20
29.1367010309
 30
0.0
 11
63.847628866
 21
29.1367010309
 31
0.0
  0
LINE
  5
1C6
330
1F
100
AcDbEntity
  8
OBRYS
100
AcDbLine
 10
74.497628866
 20
34.2867010309
 30
0.0
 11
74.497628866
 21
29.1367010309
 31
0.0
  0
LINE
  5
1C7
330
1F
100
AcDbEntity
  8
OBRYS
100
AcDbLine
 10
75.347628866
 20
34.7867010309
 30
0.0
 11
74.997628866
 21
34.7867010309
 31
0.0
  0
LINE
  5
1C8
330
1F
100
AcDbEntity
  8
OBRYS
100
AcDbLine
 10
75.847628866
 20
28.2867010309
 30
0.0
 11
75.847628866
 21
34.2867010309
 31
0.0
  0
LINE
  5
1C9
330
1F
100
AcDbEntity
  8
OBRYS
100
AcDbLine
 10
42.347628866
 20
27.7867010309
 30
0.0
 11
75.347628866
 21
27.7867010309
 31
0.0
  0
LINE
  5
1CA
330
1F
100
AcDbEntity
  8
OBRYS
100
AcDbLine
 10
41.847628866
 20
80.2867010309
 30
0.0
 11
41.847628866
 21
28.2867010309
 31
0.0
  0
LINE
  5
1CB
330
1F
100
AcDbEntity
  8
OBRYS
100
AcDbLine
 10
44.847628866
 20
80.7867010309
 30
0.0
 11
42.347628866
 21
80.7867010309
 31
0.0
  0
LINE
  5
1CC
330
1F
100
AcDbEntity
  8
OBRYS
100
AcDbLine
 10
45.347628866
 20
78.8867010309
 30
0.0
 11
45.347628866
 21
80.2867010309
 31
0.0
  0
LINE
  5
1CD
330
1F
100
AcDbEntity
  8
OBRYS
100
AcDbLine
 10
44.647628866
 20
78.3867010309
 30
0.0
 11
44.847628866
 21
78.3867010309
 31
0.0
  0
LINE
  5
1CE
330
1F
100
AcDbEntity
  8
OBRYS
100
AcDbLine
 10
44.147628866
 20
79.0867010309
 30
0.0
 11
44.147628866
 21
78.8867010309
 31
0.0
  0
LINE
  5
1CF
330
1F
100
AcDbEntity
  8
OBRYS
100
AcDbLine
 10
43.547628866
 20
79.5867010309
 30
0.0
 11
43.647628866
 21
79.5867010309
 31
0.0
  0
LINE
  5
1D0
330
1F
100
AcDbEntity
  8
OBRYS
100
AcDbLine
 10
43.047628866
 20
74.6867010309
 30
0.0
 11
43.047628866
 21
79.0867010309
 31
0.0
  0
LINE
  5
1D1
330
1F
100
AcDbEntity
  8
OBRYS
100
AcDbLine
 10
43.547628866
 20
74.1867010309
 30
0.0
 11
43.647628866
 21
74.1867010309
 31
0.0
  0
LINE
  5
1D2
330
1F
100
AcDbEntity
  8
OBRYS
100
AcDbLine
 10
44.147628866
 20
74.6867010309
 30
0.0
 11
44.147628866
 21
74.8867010309
 31
0.0
  0
LINE
  5
1D3
330
1F
100
AcDbEntity
  8
OBRYS
100
AcDbLine
 10
44.647628866
 20
75.3867010309
 30
0.0
 11
44.847628866
 21
75.3867010309
 31
0.0
  0
LINE
  5
1D4
330
1F
100
AcDbEntity
  8
OBRYS
100
AcDbLine
 10
45.347628866
 20
74.8867010309
 30
0.0
 11
45.347628866
 21
73.4867010309
 31
0.0
  0
LINE
  5
1D5
330
1F
100
AcDbEntity
  8
OBRYS
100
AcDbLine
 10
44.847628866
 20
72.9867010309
 30
0.0
 11
43.547628866
 21
72.9867010309
 31
0.0
  0
LINE
  5
1D6
330
1F
100
AcDbEntity
  8
OBRYS
100
AcDbLine
 10
43.047628866
 20
54.5867010309
 30
0.0
 11
43.047628866
 21
72.4867010309
 31
0.0
  0
LINE
  5
1D7
330
1F
100
AcDbEntity
  8
OBRYS
100
AcDbLine
 10
56.447628866
 20
54.5867010309
 30
0.0
 11
62.647628866
 21
54.5867010309
 31
0.0
  0
LINE
  5
1D8
330
1F
100
AcDbEntity
  8
OBRYS
100
AcDbLine
 10
62.647628866
 20
72.4867010309
 30
0.0
 11
62.647628866
 21
54.5867010309
 31
0.0
  0
LINE
  5
1D9
330
1F
100
AcDbEntity
  8
OBRYS
100
AcDbLine
 10
60.847628866
 20
72.9867010309
 30
0.0
 11
62.147628866
 21
72.9867010309
 31
0.0
  0
LINE
  5
1DA
330
1F
100
AcDbEntity
  8
OBRYS
100
AcDbLine
 10
60.347628866
 20
74.8867010309
 30
0.0
 11
60.347628866
 21
73.4867010309
 31
0.0
  0
LINE
  5
1DB
330
1F
100
AcDbEntity
  8
OBRYS
100
AcDbLine
 10
61.047628866
 20
75.3867010309
 30
0.0
 11
60.847628866
 21
75.3867010309
 31
0.0
  0
LINE
  5
1DC
330
1F
100
AcDbEntity
  8
OBRYS
100
AcDbLine
 10
61.547628866
 20
74.6867010309
 30
0.0
 11
61.547628866
 21
74.8867010309
 31
0.0
  0
LINE
  5
1DD
330
1F
100
AcDbEntity
  8
OBRYS
100
AcDbLine
 10
62.147628866
 20
74.1867010309
 30
0.0
 11
62.047628866
 21
74.1867010309
 31
0.0
  0
LINE
  5
1DE
330
1F
100
AcDbEntity
  8
OBRYS
100
AcDbLine
 10
62.647628866
 20
79.0867010309
 30
0.0
 11
62.647628866
 21
74.6867010309
 31
0.0
  0
LINE
  5
1DF
330
1F
100
AcDbEntity
  8
OBRYS
100
AcDbLine
 10
62.047628866
 20
79.5867010309
 30
0.0
 11
62.147628866
 21
79.5867010309
 31
0.0
  0
LINE
  5
1E0
330
1F
100
AcDbEntity
  8
OBRYS
100
AcDbLine
 10
61.547628866
 20
78.8867010309
 30
0.0
 11
61.547628866
 21
79.0867010309
 31
0.0
  0
LINE
  5
1E1
330
1F
100
AcDbEntity
  8
OBRYS
100
AcDbLine
 10
60.847628866
 20
78.3867010309
 30
0.0
 11
61.047628866
 21
78.3867010309
 31
0.0
  0
LINE
  5
1E2
330
1F
100
AcDbEntity
  8
OBRYS
100
AcDbLine
 10
60.347628866
 20
80.2867010309
 30
0.0
 11
60.347628866
 21
78.8867010309
 31
0.0
  0
LINE
  5
1E3
330
1F
100
AcDbEntity
  8
OBRYS
100
AcDbLine
 10
60.847628866
 20
80.7867010309
 30
0.0
 11
75.347628866
 21
80.7867010309
 31
0.0
  0
LINE
  5
1E4
330
1F
100
AcDbEntity
  8
OBRYS
100
AcDbLine
 10
75.847628866
 20
80.2867010309
 30
0.0
 11
75.847628866
 21
74.2867010309
 31
0.0
  0
LINE
  5
1E5
330
1F
100
AcDbEntity
  8
OBRYS
100
AcDbLine
 10
75.347628866
 20
73.7867010309
 30
0.0
 11
74.997628866
 21
73.7867010309
 31
0.0
  0
LINE
  5
1E6
330
1F
100
AcDbEntity
  8
OBRYS
100
AcDbLine
 10
74.497628866
 20
74.2867010309
 30
0.0
 11
74.497628866
 21
79.4367010309
 31
0.0
  0
LINE
  5
1E7
330
1F
100
AcDbEntity
  8
OBRYS
100
AcDbLine
 10
74.497628866
 20
79.4367010309
 30
0.0
 11
63.847628866
 21
79.4367010309
 31
0.0
  0
LINE
  5
1E8
330
1F
100
AcDbEntity
  8
OBRYS
100
AcDbLine
 10
44.547628866
 20
40.6367010309
 30
0.0
 11
43.047628866
 21
40.6367010309
 31
0.0
  0
LINE
  5
1E9
330
1F
100
AcDbEntity
  8
OBRYS
100
AcDbLine
 10
43.047628866
 20
33.1867010309
 30
0.0
 11
43.047628866
 21
40.6367010309
 31
0.0
  0
LINE
  5
1EA
330
1F
100
AcDbEntity
  8
OBRYS
100
AcDbLine
 10
43.047628866
 20
33.1867010309
 30
0.0
 11
44.547628866
 21
33.1867010309
 31
0.0
  0
LINE
  5
1EB
330
1F
100
AcDbEntity
  8
OBRYS
100
AcDbLine
 10
45.047628866
 20
32.6867010309
 30
0.0
 11
45.047628866
 21
32.4867010309
 31
0.0
  0
LINE
  5
1EC
330
1F
100
AcDbEntity
  8
OBRYS
100
AcDbLine
 10
44.547628866
 20
31.9867010309
 30
0.0
 11
43.047628866
 21
31.9867010309
 31
0.0
  0
LINE
  5
1ED
330
1F
100
AcDbEntity
  8
OBRYS
100
AcDbLine
 10
43.047628866
 20
28.9867010309
 30
0.0
 11
43.047628866
 21
31.9867010309
 31
0.0
  0
LINE
  5
1EE
330
1F
100
AcDbEntity
  8
OBRYS
100
AcDbLine
 10
62.647628866
 20
28.9867010309
 30
0.0
 11
43.047628866
 21
28.9867010309
 31
0.0
  0
LINE
  5
1EF
330
1F
100
AcDbEntity
  8
OBRYS
100
AcDbLine
 10
62.647628866
 20
31.9867010309
 30
0.0
 11
62.647628866
 21
28.9867010309
 31
0.0
  0
LINE
  5
1F0
330
1F
100
AcDbEntity
  8
OBRYS
100
AcDbLine
 10
61.147628866
 20
31.9867010309
 30
0.0
 11
62.647628866
 21
31.9867010309
 31
0.0
  0
LINE
  5
1F1
330
1F
100
AcDbEntity
  8
OBRYS
100
AcDbLine
 10
60.647628866
 20
32.6867010309
 30
0.0
 11
60.647628866
 21
32.4867010309
 31
0.0
  0
LINE
  5
1F2
330
1F
100
AcDbEntity
  8
OBRYS
100
AcDbLine
 10
62.647628866
 20
33.1867010309
 30
0.0
 11
61.147628866
 21
33.1867010309
 31
0.0
  0
LINE
  5
1F3
330
1F
100
AcDbEntity
  8
OBRYS
100
AcDbLine
 10
62.647628866
 20
40.6367010309
 30
0.0
 11
62.647628866
 21
33.1867010309
 31
0.0
  0
LINE
  5
1F4
330
1F
100
AcDbEntity
  8
OBRYS
100
AcDbLine
 10
61.147628866
 20
40.6367010309
 30
0.0
 11
62.647628866
 21
40.6367010309
 31
0.0
  0
LINE
  5
1F5
330
1F
100
AcDbEntity
  8
OBRYS
100
AcDbLine
 10
60.647628866
 20
41.3367010309
 30
0.0
 11
60.647628866
 21
41.1367010309
 31
0.0
  0
LINE
  5
1F6
330
1F
100
AcDbEntity
  8
OBRYS
100
AcDbLine
 10
62.647628866
 20
41.8367010309
 30
0.0
 11
61.147628866
 21
41.8367010309
 31
0.0
  0
LINE
  5
1F7
330
1F
100
AcDbEntity
  8
OBRYS
100
AcDbLine
 10
62.647628866
 20
49.2867010309
 30
0.0
 11
62.647628866
 21
41.8367010309
 31
0.0
  0
LINE
  5
1F8
330
1F
100
AcDbEntity
  8
OBRYS
100
AcDbLine
 10
61.147628866
 20
49.2867010309
 30
0.0
 11
62.647628866
 21
49.2867010309
 31
0.0
  0
LINE
  5
1F9
330
1F
100
AcDbEntity
  8
OBRYS
100
AcDbLine
 10
60.647628866
 20
49.9867010309
 30
0.0
 11
60.647628866
 21
49.7867010309
 31
0.0
  0
LINE
  5
1FA
330
1F
100
AcDbEntity
  8
OBRYS
100
AcDbLine
 10
62.647628866
 20
50.4867010309
 30
0.0
 11
61.147628866
 21
50.4867010309
 31
0.0
  0
LINE
  5
1FB
330
1F
100
AcDbEntity
  8
OBRYS
100
AcDbLine
 10
62.647628866
 20
53.4867010309
 30
0.0
 11
62.647628866
 21
50.4867010309
 31
0.0
  0
LINE
  5
1FC
330
1F
100
AcDbEntity
  8
OBRYS
100
AcDbLine
 10
43.047628866
 20
53.4867010309
 30
0.0
 11
62.647628866
 21
53.4867010309
 31
0.0
  0
LINE
  5
1FD
330
1F
100
AcDbEntity
  8
OBRYS
100
AcDbLine
 10
43.047628866
 20
50.4867010309
 30
0.0
 11
43.047628866
 21
53.4867010309
 31
0.0
  0
LINE
  5
1FE
330
1F
100
AcDbEntity
  8
OBRYS
100
AcDbLine
 10
43.047628866
 20
50.4867010309
 30
0.0
 11
44.547628866
 21
50.4867010309
 31
0.0
  0
LINE
  5
1FF
330
1F
100
AcDbEntity
  8
OBRYS
100
AcDbLine
 10
45.047628866
 20
49.9867010309
 30
0.0
 11
45.047628866
 21
49.7867010309
 31
0.0
  0
LINE
  5
200
330
1F
100
AcDbEntity
  8
OBRYS
100
AcDbLine
 10
44.547628866
 20
49.2867010309
 30
0.0
 11
43.047628866
 21
49.2867010309
 31
0.0
  0
LINE
  5
201
330
1F
100
AcDbEntity
  8
OBRYS
100
AcDbLine
 10
43.047628866
 20
41.8367010309
 30
0.0
 11
43.047628866
 21
49.2867010309
 31
0.0
  0
LINE
  5
202
330
1F
100
AcDbEntity
  8
OBRYS
100
AcDbLine
 10
43.047628866
 20
41.8367010309
 30
0.0
 11
44.547628866
 21
41.8367010309
 31
0.0
  0
LINE
  5
203
330
1F
100
AcDbEntity
  8
OBRYS
100
AcDbLine
 10
43.047628866
 20
54.5867010309
 30
0.0
 11
49.247628866
 21
54.5867010309
 31
0.0
  0
LINE
  5
204
330
1F
100
AcDbEntity
  8
OBRYS
100
AcDbLine
 10
50.447628866
 20
54.5867010309
 30
0.0
 11
52.247628866
 21
54.5867010309
 31
0.0
  0
LINE
  5
205
330
1F
100
AcDbEntity
  8
OBRYS
100
AcDbLine
 10
53.447628866
 20
54.5867010309
 30
0.0
 11
55.247628866
 21
54.5867010309
 31
0.0
  0
DIMENSION
  5
206
330
1F
100
AcDbEntity
  8
KOTY
100
AcDbDimension
  2
*D11
 10
41.847628866
 20
21.7867010309
 30
0.0
 11
58.847628866
 21
21.7867010309
 31
0.0
 70
   160
 71
     2
 42
-1.0
  3
SLDDIMSTYLE0
100
AcDbAlignedDimension
 13
75.847628866
 23
28.2867010309
 33
0.0
 14
41.847628866
 24
28.2867010309
 34
0.0
100
AcDbRotatedDimension
  0
DIMENSION
  5
210
330
1F
100
AcDbEntity
  8
KOTY
100
AcDbDimension
  2
*D12
 10
63.847628866
 20
92.7867010309
 30
0.0
 11
52.847628866
 21
92.7867010309
 31
0.0
 70
   160
 71
     2
 42
-1.0
  3
SLDDIMSTYLE0
100
AcDbAlignedDimension
 13
41.847628866
 23
80.2867010309
 33
0.0
 14
63.847628866
 24
79.4367010309
 34
0.0
100
AcDbRotatedDimension
  0
DIMENSION
  5
21A
330
1F
100
AcDbEntity
  8
KOTY
100
AcDbDimension
  2
*D13
 10
45.347628866
 20
86.7867010309
 30
0.0
 11
52.847628866
 21
86.7867010309
 31
0.0
 70
   160
 71
     2
 42
-1.0
  3
SLDDIMSTYLE1
100
AcDbAlignedDimension
 13
60.347628866
 23
80.2867010309
 33
0.0
 14
45.347628866
 24
80.2867010309
 34
0.0
100
AcDbRotatedDimension
  0
DIMENSION
  5
226
330
1F
100
AcDbEntity
  8
KOTY
100
AcDbDimension
  2
*D14
 10
29.847628866
 20
27.7867010309
 30
0.0
 11
29.847628866
 21
54.2867010309
 31
0.0
 70
   160
 71
     2
 42
-1.0
  3
SLDDIMSTYLE0
100
AcDbAlignedDimension
 13
42.347628866
 23
80.7867010309
 33
0.0
 14
42.347628866
 24
27.7867010309
 34
0.0
 50
90.0
100
AcDbRotatedDimension
  0
DIMENSION
  5
230
330
1F
100
AcDbEntity
  8
KOTY
100
AcDbDimension
  2
*D15
 10
35.847628866
 20
54.5867010309
 30
0.0
 11
35.847628866
 21
67.6867010309
 31
0.0
 70
   160
 71
     2
 42
-1.0
  3
SLDDIMSTYLE2
100
AcDbAlignedDimension
 13
42.347628866
 23
80.7867010309
 33
0.0
 14
43.047628866
 24
54.5867010309
 34
0.0
 50
90.0
100
AcDbRotatedDimension
  0
DIMENSION
  5
23A
330
1F
100
AcDbEntity
  8
KOTY
100
AcDbDimension
  2
*D16
 10
35.847628866
 20
28.9867010309
 30
0.0
 11
35.847628866
 21
41.2367010309
 31
0.0
 70
   160
 71
     2
 42
-1.0
  3
SLDDIMSTYLE2
100
AcDbAlignedDimension
 13
43.047628866
 23
53.4867010309
 33
0.0
 14
43.047628866
 24
28.9867010309
 34
0.0
 50
90.0
100
AcDbRotatedDimension
  0
DIMENSION
  5
244
330
1F
100
AcDbEntity
  8
KOTY
100
AcDbDimension
  2
*D17
 10
71.1208604728
 20
29.1367010309
 30
0.0
 11
71.1208604728
 21
56.2019798546
 31
0.0
 70
   160
 71
     2
 42
-1.0
  3
SLDDIMSTYLE2
100
AcDbAlignedDimension
 13
74.497628866
 23
79.4367010309
 33
0.0
 14
74.497628866
 24
29.1367010309
 34
0.0
 50
90.0
100
AcDbRotatedDimension
  0
DIMENSION
  5
24C
330
1F
100
AcDbEntity
  8
KOTY
100
AcDbDimension
  2
*D18
 10
81.847628866
 20
34.7867010309
 30
0.0
 11
81.847628866
 21
54.2867010309
 31
0.0
 70
   160
 71
     2
 42
-1.0
  3
SLDDIMSTYLE0
100
AcDbAlignedDimension
 13
75.347628866
 23
73.7867010309
 33
0.0
 14
75.347628866
 24
34.7867010309
 34
0.0
 50
90.0
100
AcDbRotatedDimension
  0
ENDSEC
  0
SECTION
  2
OBJECTS
  0
DICTIONARY
  5
C
330
0
100
AcDbDictionary
281
     1
  3
ACAD_GROUP
350
D
  3
ACAD_LAYOUT
350
1A
  3
ACAD_MLINESTYLE
350
17
  3
ACAD_PLOTSETTINGS
350
19
  3
ACAD_PLOTSTYLENAME
350
E
  0
DICTIONARY
  5
D
102
{ACAD_REACTORS
330
C
102
}
330
C
100
AcDbDictionary
281
     1
  0
DICTIONARY
  5
1A
102
{ACAD_REACTORS
330
C
102
}
330
C
100
AcDbDictionary
281
     1
  3
Layout1
350
1E
  3
Layout2
350
26
  3
Model
350
22
  0
DICTIONARY
  5
17
102
{ACAD_REACTORS
330
C
102
}
330
C
100
AcDbDictionary
281
     1
  3
Standard
350
18
  0
DICTIONARY
  5
19
102
{ACAD_REACTORS
330
C
102
}
330
C
100
AcDbDictionary
281
     1
  0
ACDBDICTIONARYWDFLT
  5
E
102
{ACAD_REACTORS
330
C
102
}
330
C
100
AcDbDictionary
281
     1
  3
Normal
350
F
100
AcDbDictionaryWithDefault
340
F
  0
LAYOUT
  5
1E
102
{ACAD_REACTORS
330
1A
102
}
330
1A
100
AcDbPlotSettings
  1

  2
none_device
  4

  6

 40
0.0
 41
0.0
 42
0.0
 43
0.0
 44
0.0
 45
0.0
 46
0.0
 47
0.0
 48
0.0
 49
0.0
140
0.0
141
0.0
142
1.0
143
1.0
 70
   688
 72
     0
 73
     0
 74
     5
  7

 75
    16
147
1.0
148
0.0
149
0.0
100
AcDbLayout
  1
Layout1
 70
     1
 71
     1
 10
0.0
 20
0.0
 11
420.0
 21
297.0
 12
0.0
 22
0.0
 32
0.0
 14
1.0000000000E+20
 24
1.0000000000E+20
 34
1.0000000000E+20
 15
-1.0000000000E+20
 25
-1.0000000000E+20
 35
-1.0000000000E+20
146
0.0
 13
0.0
 23
0.0
 33
0.0
 16
1.0
 26
0.0
 36
0.0
 17
0.0
 27
1.0
 37
0.0
 76
     0
330
1B
  0
LAYOUT
  5
26
102
{ACAD_REACTORS
330
1A
102
}
330
1A
100
AcDbPlotSettings
  1

  2
none_device
  4

  6

 40
0.0
 41
0.0
 42
0.0
 43
0.0
 44
0.0
 45
0.0
 46
0.0
 47
0.0
 48
0.0
 49
0.0
140
0.0
141
0.0
142
1.0
143
1.0
 70
   688
 72
     0
 73
     0
 74
     5
  7

 75
    16
147
1.0
148
0.0
149
0.0
100
AcDbLayout
  1
Layout2
 70
     1
 71
     2
 10
0.0
 20
0.0
 11
0.0
 21
0.0
 12
0.0
 22
0.0
 32
0.0
 14
0.0
 24
0.0
 34
0.0
 15
0.0
 25
0.0
 35
0.0
146
0.0
 13
0.0
 23
0.0
 33
0.0
 16
1.0
 26
0.0
 36
0.0
 17
0.0
 27
1.0
 37
0.0
 76
     0
330
23
  0
LAYOUT
  5
22
102
{ACAD_REACTORS
330
1A
102
}
330
1A
100
AcDbPlotSettings
  1

  2
none_device
  4

  6

 40
0.0
 41
0.0
 42
0.0
 43
0.0
 44
0.0
 45
0.0
 46
0.0
 47
0.0
 48
0.0
 49
0.0
140
0.0
141
0.0
142
1.0
143
1.0
 70
  1712
 72
     0
 73
     0
 74
     0
  7

 75
     0
147
1.0
148
0.0
149
0.0
100
AcDbLayout
  1
Model
 70
     1
 71
     0
 10
0.0
 20
0.0
 11
210.0
 21
297.0
 12
0.0
 22
0.0
 32
0.0
 14
0.0
 24
0.0
 34
0.0
 15
210.0
 25
297.0
 35
0.0
146
0.0
 13
0.0
 23
0.0
 33
0.0
 16
1.0
 26
0.0
 36
0.0
 17
0.0
 27
1.0
 37
0.0
 76
     0
330
1F
331
29
  0
MLINESTYLE
  5
18
102
{ACAD_REACTORS
330
17
102
}
330
17
100
AcDbMlineStyle
  2
Standard
 70
     0
  3

 62
   256
 51
90.0
 52
90.0
 71
     2
 49
0.5
 62
   256
  6
BYLAYER
 49
-0.5
 62
   256
  6
BYLAYER
  0
ACDBPLACEHOLDER
  5
F
102
{ACAD_REACTORS
330
E
102
}
330
E
  0
ENDSEC
  0
EOF
